MENU

KATEGORIE

TOPLISTA

Torrent: Chłopaki - The Boys *2019* [S01] [1080p] [AMZN] [WEB-DL] [DD5.1] [X264] [NTB] [Napisy PL]
Chłopaki - The Boys *2019* [S01] [1080p] [AMZN] [WEB-DL] [DD5.1] [X264] [NTB] [Napisy PL]
Dodał: umezrorv
Data: 04-09-2020
Rozmiar: 32.88 GB
Seed: 1
Peer: 0
Pobierz torrent

  • *
Głosów: 0
Kategoria: TV / SERIALE -> ZAGRANICZNE
Zaakceptował: nie wymagał akceptacji
Liczba pobrań: 3
Liczba komentarzy: 0
Ostatnia aktualizacja: 0000-00-00 00:00:00
OPIS:


..::(Info)::..

Produkcja: USA
Gatunek: Akcja, Sci-Fi, Kryminał, Dramat, Komedia
Twórca: Eric Kripke, Evan Goldberg, Seth Rogen
Platforma: Amazon Orginal
Premiera: 26 lipiec 2019

..::(Opis)::..

W fikcyjnym świecie, w którym superbohaterowie są zepsutymi przez sławę celebrytami, a każdy ich błąd i złamanie prawa jest skrzętnie tuszowane przez zespół marketingowców, grupa czterech mężczyzn postanawia zemścić się na superbohaterach, którzy wyrządzili im krzywdy. Z czasem odkrywają coraz mroczniejsze sekrety hołubionych przez społeczeństwo herosów przez co sami są w niebezpieczeństwie.

..::(Obsada)::..

Antony Starr .... Homelander
Dominique McElligott .... Królowa Maeve
Chace Crawford .... The Deep
Jessie T. Usher .... A-Train
Nathan Mitchell .... Black Noir
Erin Moriarty .... Annie January / Starlight
Laz Alonso .... Cycuś Glancuś
Jack Quaid .... Hughie



..::(Dane Techniczne)::..

Video
ID : 1
Format : AVC
Format/INFO : Advanced Video Codec
Format profile : [email protected]
Format settings : CABAC / 5 Ref Frames
Format settings, CABAC : Yes
Format settings, Reference frames : 5 frames
Codec ID : V_MPEG4/ISO/AVC
Duration : 1 h 6 min
Bit rate : 9 247 kb/s
Width : 1 920 pixels
Height : 816 pixels
Display aspect ratio : 2.35:1
Frame rate mode : Constant
Frame rate : 23.976 (24000/1001) FPS
Color space : YUV
Chroma subsampling : 4:2:0
Bit depth : 8 bits
Scan type : Progressive
Bits/(Pixel*Frame) : 0.246
Stream size : 4.31 GiB (93%)
Writing library : x264 core 157 r2969 d4099dd
Encoding settings : cabac=1 / ref=5 / deblock=1:-3:-3 / analyse=0x3:0x133 / me=umh / subme=10 / psy=1 / psy_rd=1.00:0.00 / mixed_ref=1 / me_range=48 / chroma_me=1 / trellis=2 / 8x8dct=1 / cqm=0 / deadzone=21,11 / fast_pskip=0 / chroma_qp_offset=-2 / threads=24 / lookahead_threads=4 / sliced_threads=0 / nr=0 / decimate=0 / interlaced=0 / bluray_compat=0 / constrained_intra=0 / bframes=8 / b_pyramid=2 / b_adapt=2 / b_bias=0 / direct=3 / weightb=1 / open_gop=0 / weightp=2 / keyint=250 / keyint_min=23 / scenecut=40 / intra_refresh=0 / rc=crf / mbtree=0 / crf=17.0 / qcomp=0.60 / qpmin=0 / qpmax=69 / qpstep=4 / ip_ratio=1.30 / pb_ratio=1.20 / aq=3:0.80
Language : English
Default : Yes
Forced : No

Audio
ID : 2
Format : E-AC-3
Format/INFO : Enhanced AC-3
Commercial name : Dolby Digital Plus
Codec ID : A_EAC3
Duration : 1 h 6 min
Bit rate mode : Constant
Bit rate : 640 kb/s
Channel(s) : 6 channels
Channel layout : L R C LFE Ls Rs
Sampling rate : 48.0 kHz
Frame rate : 31.250 FPS (1536 SPF)
Compression mode : Lossy
Stream size : 305 MiB (6%)
Language : English
Service kind : Complete Main
Default : Yes
Forced : No

Text #1
ID : 3
Format : UTF-8
Codec ID : S_TEXT/UTF8
Codec ID/INFO : UTF-8 Plain Text
Duration : 1 h 4 min
Bit rate : 77 b/s
Count of elements : 798
Stream size : 36.3 KiB (0%)
Language : Arabic
Default : No
Forced : No

Text #2
ID : 4
Format : UTF-8
Codec ID : S_TEXT/UTF8
Codec ID/INFO : UTF-8 Plain Text
Duration : 1 h 4 min
Bit rate : 47 b/s
Count of elements : 798
Stream size : 22.4 KiB (0%)
Title : 中文(简体)
Language : Chinese
Default : No
Forced : No

Text #3
ID : 5
Format : UTF-8
Codec ID : S_TEXT/UTF8
Codec ID/INFO : UTF-8 Plain Text
Duration : 1 h 4 min
Bit rate : 42 b/s
Count of elements : 798
Stream size : 20.0 KiB (0%)
Title : 中文(繁體)
Language : Chinese
Default : No
Forced : No

Text #4
ID : 6
Format : UTF-8
Codec ID : S_TEXT/UTF8
Codec ID/INFO : UTF-8 Plain Text
Duration : 1 h 4 min
Bit rate : 42 b/s
Count of elements : 782
Stream size : 20.1 KiB (0%)
Language : Danish
Default : No
Forced : No

Text #5
ID : 7
Format : UTF-8
Codec ID : S_TEXT/UTF8
Codec ID/INFO : UTF-8 Plain Text
Duration : 1 h 4 min
Bit rate : 52 b/s
Count of elements : 658
Stream size : 24.8 KiB (0%)
Language : German
Default : No
Forced : No

Text #6
ID : 8
Format : UTF-8
Codec ID : S_TEXT/UTF8
Codec ID/INFO : UTF-8 Plain Text
Duration : 1 h 3 min
Bit rate : 59 b/s
Count of elements : 1074
Stream size : 28.0 KiB (0%)
Title : SDH
Language : English
Default : No
Forced : No

Text #7
ID : 9
Format : UTF-8
Codec ID : S_TEXT/UTF8
Codec ID/INFO : UTF-8 Plain Text
Duration : 1 h 4 min
Bit rate : 49 b/s
Count of elements : 797
Stream size : 23.1 KiB (0%)
Title : Latinoamérica
Language : Spanish
Default : No
Forced : No

Text #8
ID : 10
Format : UTF-8
Codec ID : S_TEXT/UTF8
Codec ID/INFO : UTF-8 Plain Text
Duration : 1 h 3 min
Bit rate : 50 b/s
Count of elements : 795
Stream size : 23.4 KiB (0%)
Title : España
Language : Spanish
Default : No
Forced : No

Text #9
ID : 11
Format : UTF-8
Codec ID : S_TEXT/UTF8
Codec ID/INFO : UTF-8 Plain Text
Duration : 1 h 4 min
Bit rate : 45 b/s
Count of elements : 797
Stream size : 21.6 KiB (0%)
Language : Finnish
Default : No
Forced : No

Text #10
ID : 12
Format : UTF-8
Codec ID : S_TEXT/UTF8
Codec ID/INFO : UTF-8 Plain Text
Duration : 1 h 4 min
Bit rate : 49 b/s
Count of elements : 789
Stream size : 23.0 KiB (0%)
Language : French
Default : No
Forced : No

Text #11
ID : 13
Format : UTF-8
Codec ID : S_TEXT/UTF8
Codec ID/INFO : UTF-8 Plain Text
Duration : 1 h 4 min
Bit rate : 75 b/s
Count of elements : 798
Stream size : 35.5 KiB (0%)
Language : Hebrew
Default : No
Forced : No

Text #12
ID : 14
Format : UTF-8
Codec ID : S_TEXT/UTF8
Codec ID/INFO : UTF-8 Plain Text
Duration : 1 h 4 min
Bit rate : 126 b/s
Count of elements : 798
Stream size : 59.4 KiB (0%)
Language : Hindi
Default : No
Forced : No

Text #13
ID : 15
Format : UTF-8
Codec ID : S_TEXT/UTF8
Codec ID/INFO : UTF-8 Plain Text
Duration : 1 h 4 min
Bit rate : 45 b/s
Count of elements : 797
Stream size : 21.2 KiB (0%)
Language : Indonesian
Default : No
Forced : No

Text #14
ID : 16
Format : UTF-8
Codec ID : S_TEXT/UTF8
Codec ID/INFO : UTF-8 Plain Text
Duration : 1 h 4 min
Bit rate : 51 b/s
Count of elements : 796
Stream size : 24.1 KiB (0%)
Language : Italian
Default : No
Forced : No

Text #15
ID : 17
Format : UTF-8
Codec ID : S_TEXT/UTF8
Codec ID/INFO : UTF-8 Plain Text
Duration : 1 h 4 min
Bit rate : 53 b/s
Count of elements : 797
Stream size : 24.9 KiB (0%)
Language : Korean
Default : No
Forced : No

Text #16
ID : 18
Format : UTF-8
Codec ID : S_TEXT/UTF8
Codec ID/INFO : UTF-8 Plain Text
Duration : 1 h 3 min
Bit rate : 48 b/s
Count of elements : 795
Stream size : 22.9 KiB (0%)
Language : Norwegian Bokmal
Default : No
Forced : No

Text #17
ID : 19
Format : UTF-8
Codec ID : S_TEXT/UTF8
Codec ID/INFO : UTF-8 Plain Text
Duration : 1 h 4 min
Bit rate : 48 b/s
Count of elements : 764
Stream size : 23.0 KiB (0%)
Language : Dutch
Default : No
Forced : No

Text #18
ID : 20
Format : UTF-8
Codec ID : S_TEXT/UTF8
Codec ID/INFO : UTF-8 Plain Text
Duration : 1 h 3 min
Bit rate : 48 b/s
Count of elements : 787
Stream size : 22.6 KiB (0%)
Language : Polish
Default : No
Forced : No

Text #19
ID : 21
Format : UTF-8
Codec ID : S_TEXT/UTF8
Codec ID/INFO : UTF-8 Plain Text
Duration : 1 h 3 min
Bit rate : 49 b/s
Count of elements : 795
Stream size : 23.0 KiB (0%)
Language : Portuguese
Default : No
Forced : No

Text #20
ID : 22
Format : UTF-8
Codec ID : S_TEXT/UTF8
Codec ID/INFO : UTF-8 Plain Text
Duration : 1 h 4 min
Bit rate : 85 b/s
Count of elements : 796
Stream size : 40.2 KiB (0%)
Language : Russian
Default : No
Forced : No

Text #21
ID : 23
Format : UTF-8
Codec ID : S_TEXT/UTF8
Codec ID/INFO : UTF-8 Plain Text
Duration : 1 h 4 min
Bit rate : 50 b/s
Count of elements : 793
Stream size : 23.7 KiB (0%)
Language : Swedish
Default : No
Forced : No

Text #22
ID : 24
Format : UTF-8
Codec ID : S_TEXT/UTF8
Codec ID/INFO : UTF-8 Plain Text
Duration : 1 h 4 min
Bit rate : 151 b/s
Count of elements : 798
Stream size : 71.1 KiB (0%)
Language : Tamil
Default : No
Forced : No

Text #23
ID : 25
Format : UTF-8
Codec ID : S_TEXT/UTF8
Codec ID/INFO : UTF-8 Plain Text
Duration : 1 h 4 min
Bit rate : 128 b/s
Count of elements : 798
Stream size : 60.3 KiB (0%)
Language : Telugu
Default : No
Forced : No

Text #24
ID : 26
Format : UTF-8
Codec ID : S_TEXT/UTF8
Codec ID/INFO : UTF-8 Plain Text
Duration : 1 h 4 min
Bit rate : 121 b/s
Count of elements : 798
Stream size : 56.8 KiB (0%)
Language : Thai
Default : No
Forced : No

Text #25
ID : 27
Format : UTF-8
Codec ID : S_TEXT/UTF8
Codec ID/INFO : UTF-8 Plain Text
Duration : 1 h 4 min
Bit rate : 47 b/s
Count of elements : 794
Stream size : 22.1 KiB (0%)
Language : Turkish
Default : No
Forced : No

Menu
00:00:00.000 : en:Amazon Original
00:00:05.000 : en:Ratings
00:00:15.000 : en:A jolly Christmas party
00:03:06.000 : en:No red flags
00:07:12.000 : en:Homelander finds the connection
00:07:49.000 : en:Title Sequence
00:07:54.000 : en:The Deep gets set up in Ohio
00:09:33.000 : en:Time for some tough love
00:16:55.000 : en:Everyone's been burned
00:20:59.000 : en:Negotiating with A-Train
00:24:08.000 : en:Explaining the urgency of the situation
00:24:59.000 : en:Homelander starts asking questions
00:27:35.000 : en:The Deep makes a mistake
00:29:41.000 : en:Billy tracks down Mesmer
00:32:22.000 : en:Billy's offer for payback
00:33:44.000 : en:Our weakness is people
00:35:28.000 : en:The Deep keeps trying to do the right thing
00:36:44.000 : en:Trying to make a plan
00:40:02.000 : en:The truth about Becca
00:45:31.000 : en:The CIA to the rescue
00:48:11.000 : en:Raynor explains the situation to Madelyn
00:49:56.000 : en:A greater threat has emerged
00:51:48.000 : en:Starlight confronts Hughie
00:54:23.000 : en:End Credits
DETALE TORRENTA:[ Pokaż/Ukryj ]

Podobne pliki
Chłopaki - The Boys *2020* [S02E01-E03] [1080p] [AMZN] [WEB-DL] [DD5.1] [X264] [Telly] [Lektor & Napisy PL]
Chłopaki - The Boys *2020* [S02E01-E03] [1080p] [AMZN] [WEB-DL] [DD5.1] [X264] [Telly] [Lektor & Napisy PL]
Chłopaki / The Boys (2020) [S02E01-E05] [1080p] [AMZN] [WEB-DL] [x264-666] [Lektor PL]
Chłopaki / The Boys (2020) [S02E01-E05] [1080p] [AMZN] [WEB-DL] [x264-666] [Lektor PL]
Chłopaki - The Boys *2020* [S02E05] [720p] [AMZN] [WEB-DL] [X264] [AC3] [666] [Lektor PL]
Chłopaki - The Boys *2020* [S02E05] [720p] [AMZN] [WEB-DL] [X264] [AC3] [666] [Lektor PL]
Impetigore (2019) [1080p] [AMZN] [WEB-DL] [x264] [DDP2.0-NTG] [Napisy PL]
Impetigore (2019) [1080p] [AMZN] [WEB-DL] [x264] [DDP2.0-NTG] [Napisy PL]
Boyz in the Wood *2019* [1080p] [AMZN] [WEB-DL] [DD5.1] [X264] [MZABI] [Napisy PL]
Boyz in the Wood *2019* [1080p] [AMZN] [WEB-DL] [DD5.1] [X264] [MZABI] [Napisy PL]
Kleszcz - The Tick [S01-S02] *2017-2019* [1080p] [AMZN] [WEB-DL] [DD5.1] [X264] [Napisy PL] [Telly]
Kleszcz - The Tick [S01-S02] *2017-2019* [1080p] [AMZN] [WEB-DL] [DD5.1] [X264] [Napisy PL] [Telly]
Dolina Krzemowa - Silicon Valley *2014-2019* [S01-S06] [1080p.BluRay.x264.1080p.AMZN.WEB-DL.DD2.0.H.264-psejta3] [Lektor PL] [Alusia]
Dolina Krzemowa - Silicon Valley *2014-2019* [S01-S06] [1080p.BluRay.x264.1080p.AMZN.WEB-DL.DD2.0.H.264-psejta3] [Lektor PL] [Alusia]
Syn marnotrawny / Prodigal Son (2019) [S01E01-E02] [1080p] [AMZN] [WEB-DL] [x264-666] [Lektor PL]
Syn marnotrawny / Prodigal Son (2019) [S01E01-E02] [1080p] [AMZN] [WEB-DL] [x264-666] [Lektor PL]

Komentarze

Brak komentarzy

Zaloguj się aby skomentować