MENU

KATEGORIE

TOPLISTA

Torrent: Mulan *2020* [WEBRip.XviD.XviD][Napisy PL-Translator]
Mulan *2020* [WEBRip.XviD.XviD][Napisy PL-Translator]
Dodał: umezrorv
Data: 04-09-2020
Rozmiar: 1.44 GB
Seed: 1
Peer: 0
Pobierz torrent

  • *
Głosów: 0
Kategoria: FILMY -> DIVX / XVID
Zaakceptował: nie wymagał akceptacji
Liczba pobrań: 29
Liczba komentarzy: 1
Ostatnia aktualizacja: 2020-09-06 06:29:16
OPIS:
..::(Info)::..

reżyseria: Niki Caro
scenariusz: Lauren Hynek / Rick Jaffa / więcej...
gatunek: Dramat / Przygodowy
produkcja: USA
premiera: 11 września 2020 (Polska) / 9 marca 2020 (świat)


..::(Opis)::..


Aby obronić kraj przed najeźdźcami z północy cesarz Chin wydaje dekret nakazujący rekrutację do armii jednego mężczyzny z każdej rodziny. Hua Mulan, najstarsza córka utytułowanego wojownika, decyduje się w tajemnicy wyruszyć na wojnę zamiast niedomagającego już ojca. Przebrana za mężczyznę Hua na każdym kroku poddawana jest próbom więcej.

..::(Obsada)::..

Cesarz Yifei Liu - Jet Li
Mulan - Donnie Yen
Komandor Tung - Li Gong
Xianniang - Jason Scott Lee
Böri Khan Yoson An - Honghui


..::(Dane Techniczne)::..


Format : Matroska
Format version : Version 4
File size : 1.44 GiB
Duration : 1 h 55 min
Overall bit rate : 1 791 kb/s
Encoded date : UTC 2020-09-04 09:45:14
Writing application : mkvmerge v49.0.0 ('Sick Of Losing Soulmates') 64-bit
Writing library : libebml v1.4.0 + libmatroska v1.6.1

Video
ID : 2
Format : MPEG-4 Visual
Format profile : [email protected]
Format settings, BVOP : No
Format settings, QPel : No
Format settings, GMC : No warppoints
Format settings, Matrix : Default (H.263)
Codec ID : V_MS/VFW/FOURCC / XVID
Codec ID/Hint : XviD
Duration : 1 h 55 min
Bit rate : 1 597 kb/s
Width : 720 pixels
Height : 302 pixels
Display aspect ratio : 2.40:1
Frame rate mode : Constant
Frame rate : 23.976 FPS
Color space : YUV
Chroma subsampling : 4:2:0
Bit depth : 8 bits
Scan type : Progressive
Compression mode : Lossy
Bits/(Pixel*Frame) : 0.306
Stream size : 1.28 GiB (89%)
Writing library : Lavc58.35.100
Default : Yes
Forced : No

Audio
ID : 3
Format : MPEG Audio
Format version : Version 1
Format profile : Layer 3
Format settings : Joint stereo / MS Stereo
Codec ID : A_MPEG/L3
Codec ID/Hint : MP3
Duration : 1 h 55 min
Bit rate mode : Constant
Bit rate : 192 kb/s
Channel(s) : 2 channels
Sampling rate : 48.0 kHz
Frame rate : 41.667 FPS (1152 SPF)
Compression mode : Lossy
Stream size : 158 MiB (11%)
Writing library : LAME3.99.5
Default : Yes
Forced : No

Text
ID : 1
Format : UTF-8
Codec ID : S_TEXT/UTF8
Codec ID/INFO : UTF-8 Plain Text
Duration : 1 h 50 min
Bit rate : 38 b/s
Count of elements : 1150
Stream size : 31.0 KiB (0%)
Default : Yes
Forced : No

Mulan.2020.WEBRip.XviD.MP3-XVID-Napisy pl -(translator)

Mulan.2020.WEBRip.XviD.MP3-XVID-Napisy pl (translator) wmuxowane
DETALE TORRENTA:[ Pokaż/Ukryj ]

Podobne pliki
Mulan.2020.720p.DSNP.WEBRip.DDP5.1.x264-Napisy PL translator-wmuxowane
Mulan.2020.720p.DSNP.WEBRip.DDP5.1.x264-Napisy PL translator-wmuxowane
Mulan *2020* [480p] [WEBRip] [XviD] [AC3-M3Q] [ENG] [NAPISY PL]
Mulan *2020* [480p] [WEBRip] [XviD] [AC3-M3Q] [ENG] [NAPISY PL]
Mulan *2020* [1080p] [WEBRip] [AAC-5.1] [x264-M3Q] [ENG] [NAPISY PL]
Mulan *2020* [1080p] [WEBRip] [AAC-5.1] [x264-M3Q] [ENG] [NAPISY PL]
Mulan 2020 [720p.WEBRip.x264-NoNaNo] [ENG - Napisy PL - Lektor PL IVO]
Mulan 2020 [720p.WEBRip.x264-NoNaNo] [ENG - Napisy PL - Lektor PL IVO]
Mulan *2020* [2160p] [DSNP] [WEBRip] [x264] [DD5.1-DiRTYSODA] [Napisy PL.] [zibi6248]
Mulan *2020* [2160p] [DSNP] [WEBRip] [x264] [DD5.1-DiRTYSODA] [Napisy PL.] [zibi6248]
MULAN.2020 [PLDUB].[MD].[2160p].[WEBRip] [x264] [FROG] [DUBBING POLSKI KINOWY]
MULAN.2020 [PLDUB].[MD].[2160p].[WEBRip] [x264] [FROG] [DUBBING POLSKI KINOWY]
MULAN [2020] [720P] [H264] [WEB-DL] [AAC] [NAPISY-PL]
MULAN [2020] [720P] [H264] [WEB-DL] [AAC] [NAPISY-PL]
Mulan (2020) [1080P] [WEB] [X264] [AAC5.1] [NAPISY TRANS PL]
 Mulan (2020) [1080P] [WEB] [X264] [AAC5.1] [NAPISY TRANS PL]

Komentarze
2020-09-06 06:29:42
cukrus
gdzie sa te napisy

Zaloguj się aby skomentować