MENU

KATEGORIE

TOPLISTA

Torrent: Miasto śmierci - Killing Streets (1991) [DVDRip] [XviD] [AC3-NN] [Lektor PL]
Miasto śmierci - Killing Streets (1991) [DVDRip] [XviD] [AC3-NN] [Lektor PL]
Dodał: depesz11
Data: 06-09-2020
Rozmiar: 2.03 GB
Seed: 1
Peer: 0
Pobierz torrent

  • *
Głosów: 0
Kategoria: FILMY -> DIVX / XVID
Zaakceptował: nie wymagał akceptacji
Liczba pobrań: 0
Liczba komentarzy: 0
Ostatnia aktualizacja: 0000-00-00 00:00:00
OPIS:
2 lektorów PL

1 - Marek Ciunel (tvp)

2 - Tomasz Knapik (mgm)

INFO

Produkcja: USA Izrael
Reżyseria: Stephen Cornwell
Scenariusz: Stephen Cornwell Andrew Deutsch
Premiera: maj 1991 (świat)
Gatunek: Akcja

..( O filmie )..


https://www.filmweb.pl/film/Miasto+%C5%9Bmierci-1991-36415

OPIS

Młody żołnierz piechoty zostaje porwany przez terrorystów w Bejrucie. Jego brat bliźniak Chis (Michael Paré), sfrustrowany bezradnością rządu, który nie jest w stanie udzielić żadnej informacji, wyjeżdża do Libanu, aby przeprowadzić akcję ratunkową na własną rękę.

OBSADA

Michael Paré ... Chris
Rahely Chimeyan ... Mayla
Hashem Yassin ... Salah
Yaacov Gvir-Cohen ... Ali

DANE TECH

File size : 2.03 GiB
Duration : 1 h 42 min
Overall bit rate : 2 845 kb/s

Video
Codec ID/Hint : XviD
Duration : 1 h 42 min
Bit rate : 2 442 kb/s
Width : 720 pixels
Height : 400 pixels
Display aspect ratio : 16:9
Frame rate : 25.000 FPS
Stream size : 1.74 GiB (86%)

Audio #2
Format : AC-3
Bit rate : 192 kb/s
Channel(s) : 2 channels
Channel positions : Front: L R
Sampling rate : 48.0 kHz
Stream size : 140 MiB (7%)
DETALE TORRENTA:[ Pokaż/Ukryj ]

Podobne pliki
Pola Śmierci - The Killing Fields *1984* [DVDRip.XviD] [Lektor PL]
Pola Śmierci - The Killing Fields *1984* [DVDRip.XviD] [Lektor PL]
Pola Śmierci - The Killing Fields *1984* [DVDRip.RMVB] [Lektor PL]
Pola Śmierci - The Killing Fields *1984* [DVDRip.RMVB] [Lektor PL]
Miasto Śmierci *2008* [DVDRip.DivX] [Lektor PL]
 Miasto Śmierci *2008* [DVDRip.DivX] [Lektor PL]
Miasto Śmierci - Bordertown *2006* [DVDRip.RMVB] [Lektor PL]
Miasto Śmierci - Bordertown *2006* [DVDRip.RMVB] [Lektor PL]
Miasto Śmierci - Bordertown *2006* [DVDRip.RMVB] [Lektor PL]
Miasto Śmierci - Bordertown *2006* [DVDRip.RMVB] [Lektor PL]
Pokój Śmierci - Killing Room [DVDRip.XviD] [Napisy PL]
Pokój Śmierci - Killing Room [DVDRip.XviD] [Napisy PL]
Życzę ci śmierci - The Killing Pact (2017) [720p] [HDTV] [XViD] [AC3-H1] [Lektor PL]
Życzę ci śmierci - The Killing Pact (2017) [720p] [HDTV] [XViD] [AC3-H1] [Lektor PL]
Życzę ci śmierci / The Killing Pact (2017) [HDTV] [XviD-GR4PE] [Lektor PL]
Życzę ci śmierci / The Killing Pact (2017) [HDTV] [XviD-GR4PE] [Lektor PL]

Komentarze

Brak komentarzy

Zaloguj się aby skomentować