MENU

KATEGORIE

TOPLISTA

Torrent: Power - Project Power (2020) [NF] [WEB-DL.XviD] [Lektor PL]
Power - Project Power (2020) [NF] [WEB-DL.XviD] [Lektor PL]
Dodał: umezrorv
Data: 07-09-2020
Rozmiar: 1.29 GB
Seed: 1
Peer: 0
Pobierz torrent

  • *
Głosów: 0
Kategoria: FILMY -> DIVX / XVID
Zaakceptował: nie wymagał akceptacji
Liczba pobrań: 9
Liczba komentarzy: 0
Ostatnia aktualizacja: 0000-00-00 00:00:00
OPIS:
Tytuł: Power - Project Power
Ocena: IMDB - 7.5/10 (31)
Produkcja: USA
Gatunek: Akcja, Thriller, Science fiction
Premiera: 14 sierpień 2020
Reżyseria: Henry Joost, Ariel Schulman
Scenariusz: Mattson Tomlin
Platforma: Netflix
Czas trwania: 1h 51min

OPIS

Na ulicach Nowego Orleanu rozchodzą się plotki o nowej, tajemniczej pigułce, która wyzwala supermoce. Ale jest pewien haczyk każda osoba reaguje na nią inaczej i nie wiesz, co się stanie, dopóki jej nie połkniesz. Być może zyskasz kuloodporną skórę, supersiłę albo staniesz się niewidzialny. Ale możesz też umrzeć. Kiedy miasto zalewa fala zbrodni związanych z nowym specyfikiem, lokalny glina (Joseph Gordon-Levitt) łączy siły z nastoletnią dilerką (Dominique Fishback) i kierowanym żądzą zemsty byłym żołnierzem (Jamie Foxx), aby wspólnie walczyć z nowym zagrożeniem. Zażywa pigułkę, aby wyśledzić i powstrzymać ludzi odpowiedzialnych za jej stworzenie.

OBSADA:

Jamie Foxx .... Art
Joseph Gordon-Levitt .... Frank Shaver
Dominique Fishback .... Robin
Machine Gun Kelly .... Newt
Rodrigo Santoro .... Biggie
Amy Landecker .... Gardner
Allen Maldonado .... Landry
Kyanna Simone Simpson .... Tracy
Andrene Ward-Hammond .... Irene
Courtney B. Vance .... kapitan Crane
Casey Neistat .... Moto

DANE TECH:
Format : AVI
Format/INFO : Audio Video Interleave
Format profile : OpenDML
File size : 1.29 GiB
Duration : 1 h 53 min
Overall bit rate : 1 626 kb/s
Writing application : Lavf58.31.104

Video
ID : 0
Format : xvid
Codec ID : xvid
Duration : 1 h 53 min
Bit rate : 1 483 kb/s
Width : 720 pixels
Height : 304 pixels
Display aspect ratio : 16:9
Frame rate : 24.000 FPS
Scan type : Progressive
Bits/(Pixel*Frame) : 0.282
Stream size : 1.17 GiB (91%)

Audio
ID : 1
Format : MPEG Audio
Format version : Version 1
Format profile : Layer 3
Format settings : Joint stereo / MS Stereo
Codec ID : 55
Codec ID/Hint : MP3
Duration : 1 h 53 min
Bit rate mode : Constant
Bit rate : 128 kb/s
Channel(s) : 2 channels
Sampling rate : 48.0 kHz
Compression mode : Lossy
Stream size : 104 MiB (8%)
Alignment : Aligned on interleaves
Interleave, duration : 24 ms (0.58 video frame)
Interleave, preload duratio : 24 ms
Writing library : LAME3.99 (alpha)
DETALE TORRENTA:[ Pokaż/Ukryj ]

Podobne pliki
Power - Project Power *2020* [480p.WEB-DL.XviD.AC3-P2P] [5:1] [Lektor PL] [azjatycki]
Power - Project Power *2020* [480p.WEB-DL.XviD.AC3-P2P] [5:1] [Lektor PL] [azjatycki]
Power - Project Power *2020* [720p.WEB-DL.XviD.AC3-P2P] [5:1] [Lektor PL] [azjatycki]
Power - Project Power *2020* [720p.WEB-DL.XviD.AC3-P2P] [5:1] [Lektor PL] [azjatycki]
Power - Project Power *2020* [720P] [NF] [WEB-DL] [XviD-MAXX] [Lektor PL]
Power - Project Power *2020* [720P] [NF] [WEB-DL] [XviD-MAXX] [Lektor PL]
Power - Project Power (2020) [720p] [NF] [WEB-DL] [XviD] [AC3-H1] [Lektor PL]
Power - Project Power (2020) [720p] [NF] [WEB-DL] [XviD] [AC3-H1] [Lektor PL]
Power - Project Power *2020* [NF] [WEB-DL] [XviD-KiT] [Lektor PL] [Karibu]
Power - Project Power *2020* [NF] [WEB-DL] [XviD-KiT] [Lektor PL] [Karibu]
Power / Project Power (2020) [720p] [WEB-DL] [XviD] [DD5.1-K83] [Lektor PL]
Power / Project Power (2020) [720p] [WEB-DL] [XviD] [DD5.1-K83] [Lektor PL]
Power / Project Power (2020) [480p] [WEB-DL] [XviD] DD5.1-K83] [Lektor PL]
Power / Project Power (2020) [480p] [WEB-DL] [XviD] DD5.1-K83] [Lektor PL]
Power - Project Power *2020* [NF] [WEB-DL] [XviD-KiT] [Lektor PL]
Power - Project Power *2020* [NF] [WEB-DL] [XviD-KiT] [Lektor PL]

Komentarze

Brak komentarzy

Zaloguj się aby skomentować