MENU

KATEGORIE

TOPLISTA

Torrent: Mulan.2020.720p.DSNP.WEBRip.DDP5.1.x264-Napisy PL translator-wmuxowane
Mulan.2020.720p.DSNP.WEBRip.DDP5.1.x264-Napisy PL translator-wmuxowane
Dodał: umezrorv
Data: 07-09-2020
Rozmiar: 4.03 GB
Seed: 1
Peer: 0
Pobierz torrent

  • *
Głosów: 0
Kategoria: FILMY -> HD / x264
Zaakceptował: nie wymagał akceptacji
Liczba pobrań: 10
Liczba komentarzy: 0
Ostatnia aktualizacja: 0000-00-00 00:00:00
OPIS:
----INFO----

reżyseria -Niki Caro
scenariusz
Lauren Hynek / Rick Jaffa / więcej...
gatunek
Dramat / Przygodowy
produkcja
USA
premiera
11 września 2020 (Polska) / 9 marca 2020 (świat)

----OPIS----

Kobieta o imieniu Hua Mulan przebrana za mężczyzna zaciąga się do cesarskiej armii, aby pomóc swojemu schorowanemu ojcu

----OBSADA----

Jet Li - Cesarz
Yifei Liu- Mulan
Donnie Yen- Komandor
Tung Li Gong - Xianniang
Jason Scott Lee--Böri Khan Yoson An - Honghui

----DANE TECHNICZNE----

Mulan.2020.720p.DSNP.WEBRip.DDP5.1.x264-Subbpl.mkv
Format : Matroska
Format version : Version 4
File size : 4.03 GiB
Duration : 1 h 55 min
Overall bit rate mode : Variable
Overall bit rate : 5 012 kb/s
Encoded date : UTC 2020-09-04 11:10:38
Writing application : mkvmerge v49.0.0 ('Sick Of Losing Soulmates') 64-bit
Writing library : libebml v1.4.0 + libmatroska v1.6.1
Cover : Yes
Attachments : small_cover.jpg / small_cover_land.jpg / cover.jpg / cover_land.jpg

Video
ID : 1
Format : AVC
Format/INFO : Advanced Video Codec
Format profile : [email protected]
Format settings : CABAC / 4 Ref Frames
Format settings, CABAC : Yes
Format settings, Reference : 4 frames
Codec ID : V_MPEG4/ISO/AVC
Duration : 1 h 55 min
Bit rate mode : Variable
Bit rate : 4 242 kb/s
Maximum bit rate : 6 375 kb/s
Width : 1 280 pixels
Height : 720 pixels
Display aspect ratio : 16:9
Frame rate mode : Constant
Frame rate : 23.976 (24000/1001) FPS
Color space : YUV
Chroma subsampling : 4:2:0
Bit depth : 8 bits
Scan type : Progressive
Bits/(Pixel*Frame) : 0.192
Stream size : 3.41 GiB (85%)
Default : Yes
Forced : No
Color range : Limited
Color primaries : BT.709
Transfer characteristics : BT.709
Matrix coefficients : BT.709

Audio
ID : 2
Format : E-AC-3 JOC
Format/INFO : Enhanced AC-3 with Joint Object Coding
Commercial name : Dolby Digital Plus with Dolby Atmos
Codec ID : A_EAC3
Duration : 1 h 55 min
Bit rate mode : Constant
Bit rate : 768 kb/s
Channel(s) : 6 channels
Channel layout : L R C LFE Ls Rs
Sampling rate : 48.0 kHz
Frame rate : 31.250 FPS (1536 SPF)
Compression mode : Lossy
Stream size : 633 MiB (15%)
Language : English
Service kind : Complete Main
Default : No
Forced : No
Complexity index : 16
Number of dynamic objects : 15
Bed channel count : 1 channel
Bed channel configuration : LFE

Text
ID : 3
Format : UTF-8
Codec ID : S_TEXT/UTF8
Codec ID/INFO : UTF-8 Plain Text
Duration : 1 h 50 min
Bit rate : 38 b/s
Count of elements : 1150
Stream size : 31.0 KiB (0%)
Default : Yes
Forced : No

-------TRAILER--------https://www.youtube.com/watch?v=4Ahh0NxW_Rw
DETALE TORRENTA:[ Pokaż/Ukryj ]

Podobne pliki
Mulan *2020* [2160p] [DSNP] [WEBRip] [x264] [DD5.1-DiRTYSODA] [Napisy PL.] [zibi6248]
Mulan *2020* [2160p] [DSNP] [WEBRip] [x264] [DD5.1-DiRTYSODA] [Napisy PL.] [zibi6248]
Mulan 2020 [720p.WEBRip.x264-NoNaNo] [ENG - Napisy PL - Lektor PL IVO]
Mulan 2020 [720p.WEBRip.x264-NoNaNo] [ENG - Napisy PL - Lektor PL IVO]
Mulan *2020* [WEBRip.XviD.XviD][Napisy PL-Translator]
Mulan *2020* [WEBRip.XviD.XviD][Napisy PL-Translator]
Kombinator - El Presidente *2020* [S01] [720p] [AMZN] [WEBRip] [DDP5.1] [x264] [NTb] [Napisy PL]
Kombinator - El Presidente *2020* [S01] [720p] [AMZN] [WEBRip] [DDP5.1] [x264] [NTb] [Napisy PL]
Lenox Hill *2020* [S01] [720p] [WEBRip] [DDP5.1 Atmos] [x264] [AMRAP] [Napisy PL]
Lenox Hill *2020* [S01] [720p] [WEBRip] [DDP5.1 Atmos] [x264] [AMRAP] [Napisy PL]
High Score: Złota era gier *2020* [S01] [720p] [WEBRip] [DDP5.1] [x264] [AMRAP] [Napisy PL]
High Score: Złota era gier *2020* [S01] [720p] [WEBRip] [DDP5.1] [x264] [AMRAP] [Napisy PL]
Wielkie zagadki świata - Mystery Lab *2020* [S01] [720p] [WEBRip] [DDP5.1] [x264] [SPiRiT] [Napisy PL]
Wielkie zagadki świata - Mystery Lab *2020* [S01] [720p] [WEBRip] [DDP5.1] [x264] [SPiRiT] [Napisy PL]
Najbardziej poszukiwani przestępcy - World's Most Wanted *2020* [S01] [720p] [WEBRip] [DDP5.1] [x264] [TEPES] [Napisy PL]
Najbardziej poszukiwani przestępcy - World's Most Wanted *2020* [S01] [720p] [WEBRip] [DDP5.1] [x264] [TEPES] [Napisy PL]

Komentarze

Brak komentarzy

Zaloguj się aby skomentować