MENU

KATEGORIE

TOPLISTA

Torrent: The Yardbirds - Having A Rave Up (1965) [FLAC]
The Yardbirds - Having A Rave Up (1965) [FLAC]
Dodał: Beatrix
Data: 12-10-2020
Rozmiar: 270.72 MB
Seed: 1
Peer: 0
Pobierz torrent

  • *
Głosów: 0
Kategoria: MUZYKA -> ZAGRANICZNA
Zaakceptował: nie wymagał akceptacji
Liczba pobrań: 1
Liczba komentarzy: 0
Ostatnia aktualizacja: 0000-00-00 00:00:00
OPIS:
FLAC LOSSLESS 16bit-44kHz
Dynamic Range 12

2004 SomeWax Recordings SW337-2


foobar2000 1.4.3 / Dynamic Range Meter 1.1.1
log date: 2020-10-11 16:01:44

--------------------------------------------------------------------------------
Analyzed: The Yardbirds / Having A Rave Up
--------------------------------------------------------------------------------

DR         Peak         RMS     Duration Track
--------------------------------------------------------------------------------
DR13      -1.09 dB   -15.49 dB      2:28 01-Heart Full Of Soul
DR12      -1.53 dB   -16.02 dB      3:17 02-Mr. You're A Better Man Than I
DR11      -2.20 dB   -14.74 dB      2:24 03-Evil Hearted You
DR13      -0.20 dB   -15.74 dB      2:57 04-Still I'm Sad
DR13      -2.72 dB   -17.36 dB      3:07 05-Jeff's Blues (Take 2)
DR15      -1.76 dB   -18.82 dB      3:06 06-Like Jimmy Reed Again
DR14      -0.20 dB   -17.46 dB      2:39 07-Chris' Number
DR13      -0.42 dB   -16.47 dB      2:29 08-Pounds And Stomps
DR11      -2.54 dB   -16.31 dB      2:36 09-Shapes Of Things
DR11      -1.53 dB   -14.52 dB      2:37 10-I'm A Man
DR13      -0.51 dB   -14.47 dB      3:25 11-Train Kept A Rollin'
DR12      -0.68 dB   -14.61 dB      4:05 12-Here 'Tis
DR12      -0.46 dB   -14.96 dB      2:37 13-Steeled Blues
DR14      -0.61 dB   -16.37 dB      4:20 14-New York City Blues
DR11      -2.55 dB   -15.79 dB      3:10 15-What Do You Want (Take 4)
DR11      -3.27 dB   -15.36 dB      2:44 16-Stroll On

Number of tracks:  16
Official DR value: DR12

Samplerate:        44100 Hz
Channels:          2
Bits per sample:   16
Bitrate:           814 kbps
Codec:             FLAC
DETALE TORRENTA:[ Pokaż/Ukryj ]

Podobne pliki
The Yardbirds - Having A Rave Up (1965) [FLAC]
The Yardbirds - Having A Rave Up (1965) [FLAC]
The Yardbirds - For Your Love (1965) [mp3@256]
The Yardbirds - For Your Love (1965) [mp3@256]
The Yardbirds - Ultimate! (2001) [FLAC]
The Yardbirds - Ultimate! (2001) [FLAC]
VA - 90s Club Mix Vol. 4: The Ultimative Rave Techno Hits (2020) [FLAC]
VA - 90s Club Mix Vol. 4: The Ultimative Rave Techno Hits (2020) [FLAC]
The Who - Dyskografia (1965-2006) [FLAC]
The Who - Dyskografia (1965-2006) [FLAC]
Rave Family - Rave Family (1995) [mp3@192kbps]
Rave Family - Rave Family (1995) [mp3@192kbps]
The Sonics - Here Are The Sonics + Bonus Tracks (1965) [flac] [Rooster]
The Sonics - Here Are The Sonics + Bonus Tracks (1965) [flac] [Rooster]
Artist/Band: Alison Moyet Album/Song: Singles Year: 1995 Country: UK Genre: Pop Quality: FLAC 01 The First Time Ever I Saw Your Face.flac 02 Only You.flac 03 Nobody's Diary.flac 04 Situation.flac 05 Love Resurrection.flac 06 All Cried Out
  Artist/Band:   Alison Moyet Album/Song:   Singles Year:   1995 Country:   UK Genre:   Pop Quality:   FLAC    01 The First Time Ever I Saw Your Face.flac 02 Only You.flac 03 Nobody's Diary.flac 04 Situation.flac 05 Love Resurrection.flac 06 All Cried Out

Komentarze

Brak komentarzy

Zaloguj się aby skomentować