MENU

KATEGORIE

TOPLISTA

Torrent: Miles Davis - The Collection (2020) [FLAC] [DR14]
Miles Davis - The Collection (2020) [FLAC] [DR14]
Dodał: Beatrix
Data: 12-10-2020
Rozmiar: 1.19 GB
Seed: 1
Peer: 0
Pobierz torrent

  • *
Głosów: 0
Kategoria: MUZYKA -> ZAGRANICZNA
Zaakceptował: nie wymagał akceptacji
Liczba pobrań: 0
Liczba komentarzy: 0
Ostatnia aktualizacja: 0000-00-00 00:00:00
OPIS:
FLAC LOSSLESS 16bit-44kHz
Dynamic Range 14


foobar2000 1.4.3 / Dynamic Range Meter 1.1.1
log date: 2020-05-12 18:02:16

--------------------------------------------------------------------------------
Analyzed: Miles Davis / The Miles Davis Collection
--------------------------------------------------------------------------------

DR         Peak         RMS     Duration Track
--------------------------------------------------------------------------------
DR13      -4.40 dB   -21.29 dB      4:09 01-Buzzard Song
DR13      -0.99 dB   -16.99 dB      6:01 02-'Round Midnight
DR16      -0.06 dB   -20.09 dB      9:05 03-So What
DR16       0.00 dB   -20.36 dB      3:27 04-Springsville
DR14      -2.55 dB   -19.81 dB      5:55 05-Circle
DR14       0.00 dB   -16.41 dB      6:16 06-Eighty-One
DR15      -0.01 dB   -19.99 dB      9:36 07-Freddie Freeloader
DR14      -1.05 dB   -19.37 dB      7:07 08-All Of You
DR14      -4.42 dB   -25.93 dB      5:29 09-Blue In Green
DR13      -1.10 dB   -18.04 dB      9:49 10-Footprints
DR13      -5.57 dB   -21.84 dB      3:38 11-Gone
DR15      -0.45 dB   -18.85 dB      3:52 12-The Pan Piper
DR14      -1.28 dB   -19.48 dB      7:22 13-Little One
DR15       0.00 dB   -20.93 dB      3:35 14-The Duke
DR15      -2.86 dB   -22.63 dB     11:34 15-All Blues
DR13      -1.51 dB   -17.37 dB      5:28 16-E.S.P.
DR13      -8.54 dB   -27.66 dB      3:43 17-I Loves You, Porgy
DR15       0.00 dB   -23.25 dB      4:28 18-My Ship
DR13      -1.51 dB   -16.50 dB      8:06 19-Petits Machins (Little Stuff)
DR14      -1.33 dB   -17.32 dB      3:59 20-R.J.
DR15       0.00 dB   -20.56 dB      7:49 21-Agitation
DR14      -3.71 dB   -24.73 dB      9:25 22-Flamenco Sketches
DR14      -0.43 dB   -17.60 dB      7:16 23-Freedom Jazz Dance
DR15       0.00 dB   -21.92 dB      3:30 24-Miles Ahead
DR13      -2.79 dB   -18.27 dB      3:38 25-Time After Time
DR15      -1.15 dB   -18.45 dB      6:18 26-Portia
DR13      -6.67 dB   -23.49 dB      3:21 27-Summertime
DR13      -0.79 dB   -17.00 dB      4:32 28-Tadd's Delight
DR15       0.00 dB   -21.76 dB      5:18 29-Blues For Pablo
DR13       0.00 dB   -14.47 dB      4:50 30-Doxy
DR13       0.00 dB   -17.70 dB      8:34 31-Iris
DR15      -0.56 dB   -21.42 dB      8:52 32-Mood
DR16      -1.17 dB   -21.69 dB      4:37 33-New Rhumba
DR13      -7.38 dB   -26.88 dB      2:48 34-The Meaning Of The Blues
DR13      -3.64 dB   -25.07 dB      2:18 35-Lament
DR13      -5.31 dB   -23.76 dB      6:17 36-My Man's Gone Now
DR15       0.00 dB   -21.35 dB      3:08 37-I Don't Wanna Be Kissed (By Anyone But You)
DR14      -0.01 dB   -16.47 dB      7:53 38-Bye Bye Blackbird

Number of tracks:  38
Official DR value: DR14

Samplerate:        44100 Hz
Channels:          2
Bits per sample:   16
Bitrate:           852 kbps
Codec:             FLAC
DETALE TORRENTA:[ Pokaż/Ukryj ]

Podobne pliki
Miles Davis - The Best of Miles Davis (2020) Mp3 320kbps
Miles Davis - The Best of Miles Davis (2020) Mp3 320kbps
Miles Davis & John Coltrane - Best of Miles Davis & John Coltrane (1955-1961) (2001) [FLAC]
Miles Davis & John Coltrane - Best of Miles Davis & John Coltrane (1955-1961) (2001) [FLAC]
Miles Davis - The Essential Miles Davis ([Lossy Mp3 320 Kbps] Jazz Instrument > Tromba + cover)
Miles Davis - The Essential Miles Davis ([Lossy Mp3 320 Kbps] Jazz Instrument > Tromba + cover)
Miles Davis - Birth of the Cool [Flac]
Miles Davis - Birth of the Cool [Flac]
Miles Davis - Kind Of Blue (1959) [FLAC]
Miles Davis - Kind Of Blue (1959) [FLAC]
Miles Davis - Kind Of Blue (1959) [FLAC]
Miles Davis - Kind Of Blue (1959) [FLAC]
Miles Davis - The Lost Septet (2020) [mp3@320]
Miles Davis - The Lost Septet (2020) [mp3@320]
Miles Davis - The Lost Septet (2020) Mp3 320kbps
Miles Davis - The Lost Septet (2020) Mp3 320kbps

Komentarze

Brak komentarzy

Zaloguj się aby skomentować