MENU

KATEGORIE

TOPLISTA

Torrent: America - Complete Greatest Hits ( 2001) [FLAC]
America - Complete Greatest Hits ( 2001) [FLAC]
Dodał: Beatrix
Data: 13-10-2020
Rozmiar: 476.00 MB
Seed: 1
Peer: 0
Pobierz torrent

  • *
Głosów: 0
Kategoria: MUZYKA -> ZAGRANICZNA
Zaakceptował: nie wymagał akceptacji
Liczba pobrań: 1
Liczba komentarzy: 0
Ostatnia aktualizacja: 0000-00-00 00:00:00
OPIS:
FLAC LOSSLESS 16bit-44kHz
Dynamic Range 10

Rhino R2 74375


foobar2000 1.4.3 / Dynamic Range Meter 1.1.1
log date: 2019-12-06 17:56:15

--------------------------------------------------------------------------------
Analyzed: America / The Complete Greatest Hits
--------------------------------------------------------------------------------

DR         Peak         RMS     Duration Track
--------------------------------------------------------------------------------
DR10      -0.72 dB   -12.81 dB      4:12 01-A Horse With No Name
DR11      -0.72 dB   -13.54 dB      5:09 02-Sandman
DR10      -1.95 dB   -14.23 dB      3:07 03-I Need You
DR10      -0.24 dB   -12.38 dB      3:06 04-Everyone I Meet Is From California
DR10      -0.72 dB   -12.86 dB      3:33 05-Ventura Highway
DR10      -0.72 dB   -12.73 dB      2:32 06-Don't Cross The River
DR9       -0.72 dB   -12.49 dB      3:19 07-Only In Your Heart
DR12      -0.92 dB   -15.74 dB      3:07 08-Muskrat Love
DR9       -0.24 dB   -12.21 dB      3:19 09-Another Try
DR8       -0.24 dB   -10.64 dB      3:28 10-Tin Man
DR9       -0.24 dB   -12.03 dB      2:28 11-Lonely People
DR9       -0.48 dB   -12.34 dB      3:16 12-Sister Golden Hair
DR10      -0.24 dB   -14.38 dB      3:11 13-Daisy Jane
DR9       -0.24 dB   -10.90 dB      2:23 14-Woman Tonight
DR10      -0.48 dB   -13.92 dB      3:17 15-Today's The Day
DR11      -0.48 dB   -14.19 dB      2:54 16-Amber Cascades
DR11      -0.40 dB   -13.42 dB      2:46 17-California Dreamin'
DR12      -0.16 dB   -14.03 dB      3:53 18-You Can Do Magic
DR12      -0.24 dB   -14.47 dB      3:54 19-Right Before Your Eyes
DR11      -0.09 dB   -12.93 dB      4:02 20-The Border
DR10      -1.61 dB   -14.15 dB      4:50 21-World Of Light
DR12      -0.24 dB   -15.20 dB      3:39 22-Paradise

Number of tracks:  22
Official DR value: DR10

Samplerate:        44100 Hz
Channels:          2
Bits per sample:   16
Bitrate:           820 kbps
Codec:             FLAC
DETALE TORRENTA:[ Pokaż/Ukryj ]

Podobne pliki
Ice Cube - Greatest Hits (2001) [FLAC]
Ice Cube - Greatest Hits (2001) [FLAC]
Barenaked Ladies - All Their Greatest Hits (1991-2001) [FLAC]
Barenaked Ladies - All Their Greatest Hits (1991-2001) [FLAC]
Eagles - The Complete Greatest Hits (2 Discs) [2003][mp3@vbr]
Eagles - The Complete Greatest Hits (2 Discs) [2003][mp3@vbr]
Eagles - Complete Greatest Hits (2CD) (2003) [mp3@192kbp/s]
Eagles - Complete Greatest Hits (2CD) (2003) [mp3@192kbp/s]
Greatest Hits - Just Jinger [2001]
Greatest Hits - Just Jinger [2001]
The Cure - Greatest Hits (2001) [mp3@VBR]
The Cure - Greatest Hits (2001) [mp3@VBR]
Madonna - Greatest Hits Vol 2 (2001) [mp3@237]
Madonna - Greatest Hits Vol 2 (2001) [mp3@237]
The Cure - Greatest Hits (2001) [mp3@196kbps]
The Cure - Greatest Hits (2001) [mp3@196kbps]

Komentarze

Brak komentarzy

Zaloguj się aby skomentować