MENU

KATEGORIE

TOPLISTA

Torrent: Piotrek trzynastego 2, Skórza twarz [XviD] [AC3 5.1] [Film Polski]
Piotrek trzynastego 2, Skórza twarz [XviD] [AC3 5.1] [Film Polski]
Dodał: depesz11
Data: 14-10-2020
Rozmiar: 1.89 GB
Seed: 1
Peer: 0
Pobierz torrent

  • *
Głosów: 0
Kategoria: FILMY -> DIVX / XVID
Zaakceptował: nie wymagał akceptacji
Liczba pobrań: 12
Liczba komentarzy: 0
Ostatnia aktualizacja: 0000-00-00 00:00:00
OPIS:
...( Info )...

reżyseria - Piotr Matwiejczyk
scenariusz - Piotr Matwiejczyk
gatunek - Komedia
produkcja - Polska
Rok wydania 2013

...( Opis )...

Grupa przyjaciół spędza wakacje na Mazurach. Niebawem okazuje się, że grozi im śmiertelne niebezpieczeństwo. Młodzież, aby przetrwać, musi stawić czoło seryjnemu mordercy z piłą łańcuchową.

...( Obsada )...


Piotr Matwiejczyk/Piotrek
Dawid Antkowiak/Michał
Magdalena Kielar/Karolina
Paweł Kozioł/Stanisław
Andrzej Gałła/Ojciec Jeremiego
Marcin Bosak/Rybak z bosakiem

...( Dane Techniczne )...

Piotrek trzynastego 2, Skórza twarz [XviD] [AC3 5.1] [Film Polski].mkv
Format           : Matroska
Format version       : Version 4
File size          : 1.89 GiB
Duration          : 1 h 28 min
Overall bit rate mode    : Constant
Overall bit rate      : 3 042 kb/s
Encoded date        : UTC 2020-10-12 03:54:29
Writing application     : mkvmerge v49.0.0 ('Sick Of Losing Soulmates') 64-bit
Writing library       : libebml v1.4.0 + libmatroska v1.6.1

Video
ID             : 1
Format           : AVC
Format/Info         : Advanced Video Codec
Format profile       : High@L4
Format settings       : CABAC / 3 Ref Frames
Format settings, CABAC   : Yes
Format settings, Reference : 3 frames
Format settings, GOP    : M=4, N=25
Codec ID          : V_MPEG4/ISO/AVC
Duration          : 1 h 28 min
Bit rate mode        : Constant
Bit rate          : 2 592 kb/s
Width            : 1 920 pixels
Height           : 1 080 pixels
Display aspect ratio    : 16:9
Original display aspect rat : 16:9
Frame rate mode       : Constant
Frame rate         : 25.000 FPS
Color space         : YUV
Chroma subsampling     : 4:2:0
Bit depth          : 8 bits
Scan type          : Progressive
Bits/(Pixel*Frame)     : 0.050
Stream size         : 1.61 GiB (85%)
Default           : Yes
Forced           : No

Audio
ID             : 2
Format           : AC-3
Format/Info         : Audio Coding 3
Commercial name       : Dolby Digital
Codec ID          : A_AC3
Duration          : 1 h 28 min
Bit rate mode        : Constant
Bit rate          : 448 kb/s
Channel(s)         : 6 channels
Channel layout       : L R C LFE Ls Rs
Sampling rate        : 48.0 kHz
Frame rate         : 31.250 FPS (1536 SPF)
Compression mode      : Lossy
Stream size         : 285 MiB (15%)
Language          : Polish
Service kind        : Complete Main
Default           : Yes
Forced           : No
DETALE TORRENTA:[ Pokaż/Ukryj ]

Podobne pliki
Piotrek trzynastego 2 Skórza Twarz *2012* [HDTV] [ XViD-MX] [FILM POLSKI] [marcinc33]
Piotrek trzynastego 2 Skórza Twarz *2012* [HDTV] [ XViD-MX] [FILM POLSKI] [marcinc33]
Piotrek trzynastego 2010 [XviD] [AC3 5.1] [Film Polski]
Piotrek trzynastego 2010 [XviD] [AC3 5.1] [Film Polski]
Pan T. *2019* [WEB-DL] [XviD-KiT] [Film polski]
Pan T. *2019* [WEB-DL] [XviD-KiT] [Film polski]
Ida 2013 [BDRip.XviD] [Film Polski]
Ida 2013 [BDRip.XviD] [Film Polski]
Mayday *2020* [WEB-DL] [XviD-KiT] [Film polski]
Mayday *2020* [WEB-DL] [XviD-KiT] [Film polski]
E=mc2 *2002* [DVDRip.XviD.AC3.5.1] [PL] [Film Polski]
E=mc2 *2002* [DVDRip.XviD.AC3.5.1] [PL] [Film Polski]
Zenek *2020* [WEB-DL] [XviD-KRT] [Film polski]
Zenek *2020* [WEB-DL] [XviD-KRT] [Film polski]
HEL [2009] [480P] [WEB-RIP] [XVID] [MP3] [FILM-POLSKI]
HEL [2009] [480P] [WEB-RIP] [XVID] [MP3] [FILM-POLSKI]

Komentarze

Brak komentarzy

Zaloguj się aby skomentować