MENU

KATEGORIE

TOPLISTA

Torrent: Kin - Zabójcza Broń -- Kin - 2018 [BDRip][1080p][XviD] [AC3 5.1] [Lektor PL]
Kin - Zabójcza Broń -- Kin - 2018 [BDRip][1080p][XviD] [AC3 5.1] [Lektor PL]
Dodał: depesz11
Data: 14-10-2020
Rozmiar: 6.89 GB
Seed: 1
Peer: 0
Pobierz torrent

  • *
Głosów: 0
Kategoria: FILMY -> DIVX / XVID
Zaakceptował: nie wymagał akceptacji
Liczba pobrań: 3
Liczba komentarzy: 0
Ostatnia aktualizacja: 0000-00-00 00:00:00
OPIS:
...( Info )...


reżyseria...Jonathan Baker / Josh Baker
scenariusz...Daniel Casey
gatunek...Akcja / Sci-Fi
produkcja...USA
premiera...29 sierpnia 2018 (świat)

...( Opis )...

Pewnego dnia, nastoletni Eli włóczy się po opuszczonych magazynach w przemysłowej części upadającego Detroit. Pośród śmieci, w kałuży wody pomieszanej ze starym smarem znajduje broń o wielkiej mocy i niewiadomym pochodzeniu . Kiedy wraz z przyrodnim bratem , który ma na karku bezwzględnych gangsterów ucieka z Detroit, super broń jest ich jedyną nadzieją na przetrwanie. Tymczasem ich śladem podążają agenci federalni i pozaziemscy żołnierze. Wszyscy szukają broni, którą znalazł Eli.

...( Obsada )...

Myles Truitt / Eli Solinski
Jack Reynor / Jimmy Solinski
Dennis Quaid / Hal Solinski
Zoë Kravitz / Milly
James Franco / Taylor Balik
Carrie Coon / Morgan Hunter

...( Dane Techniczne )...

Kin - 2018 [BDRip][1080p][XviD] [AC3 5.1] [Lektor PL].mkv
Format           : Matroska
Format version       : Version 4
File size          : 6.89 GiB
Duration          : 1 h 42 min
Overall bit rate      : 9 582 kb/s
Encoded date        : UTC 2020-10-12 06:11:14
Writing application     : mkvmerge v49.0.0 ('Sick Of Losing Soulmates') 64-bit
Writing library       : libebml v1.4.0 + libmatroska v1.6.1

Video
ID             : 1
Format           : AVC
Format/Info         : Advanced Video Codec
Format profile       : High@L4.1
Format settings       : CABAC / 5 Ref Frames
Format settings, CABAC   : Yes
Format settings, Reference : 5 frames
Codec ID          : V_MPEG4/ISO/AVC
Duration          : 1 h 42 min
Bit rate          : 9 131 kb/s
Width            : 1 920 pixels
Height           : 808 pixels
Display aspect ratio    : 2.40:1
Frame rate mode       : Constant
Frame rate         : 23.976 (23976/1000) FPS
Original frame rate     : 23.976 (24000/1001) FPS
Color space         : YUV
Chroma subsampling     : 4:2:0
Bit depth          : 8 bits
Scan type          : Progressive
Bits/(Pixel*Frame)     : 0.245
Stream size         : 6.56 GiB (95%)
Language          : English
Default           : Yes
Forced           : No

Audio
ID             : 2
Format           : AC-3
Format/Info         : Audio Coding 3
Commercial name       : Dolby Digital
Codec ID          : A_AC3
Duration          : 1 h 42 min
Bit rate mode        : Constant
Bit rate          : 448 kb/s
Channel(s)         : 6 channels
Channel layout       : L R C LFE Ls Rs
Sampling rate        : 48.0 kHz
Frame rate         : 31.250 FPS (1536 SPF)
Compression mode      : Lossy
Stream size         : 329 MiB (5%)
Language          : Polish
Service kind        : Complete Main
Default           : Yes
Forced           : No
DETALE TORRENTA:[ Pokaż/Ukryj ]

Podobne pliki
Zabójcza broń - pack 1-4 [DVDRip.RMVB] [Lektor PL]
Zabójcza broń - pack 1-4 [DVDRip.RMVB] [Lektor PL]
Zabójcza broń - Lethal Weapon 1987 [DVDRip.RMVB] [Lektor PL]
Zabójcza broń - Lethal Weapon 1987 [DVDRip.RMVB] [Lektor PL]
Zabójcza broń 4 - Lethal Weapon 4 *1998* [TVRip] [RMVB] [Lektor PL]
Zabójcza broń 4 - Lethal Weapon 4 *1998* [TVRip] [RMVB] [Lektor PL]
Zabójcza broń - Lethal Weapon | Kolekcja *1987-1998* [3xDVD9] [1xDVD5] [Lektor i Napisy PL]
Zabójcza broń - Lethal Weapon | Kolekcja *1987-1998* [3xDVD9] [1xDVD5] [Lektor i Napisy PL]
Zabójcza Broń 1-4 - Lethal Weapon 1-4 *1987-1998* [DVDRip.XviD][ENG]
Zabójcza Broń 1-4 - Lethal Weapon 1-4 *1987-1998* [DVDRip.XviD][ENG]
Zabójcza broń III - Lethal Weapon III (1992) [DVD] [Napisy PL]
Zabójcza broń III - Lethal Weapon III (1992) [DVD] [Napisy PL]
Zabójcza broń IV - Lethal Weapon IV (1998) [DVD5] [PAL] [Napisy PL]
Zabójcza broń IV - Lethal Weapon IV (1998) [DVD5] [PAL] [Napisy PL]
Zabójcza broń - Lethal Weapon *1987* [720p.BluRay.x264]
Zabójcza broń - Lethal Weapon *1987* [720p.BluRay.x264]

Komentarze

Brak komentarzy

Zaloguj się aby skomentować