MENU

KATEGORIE

TOPLISTA

Torrent: Miasteczko Halloween - The.Nightmare.Before.Christmas.1993.[BRRip] [XviD] [Dubbing PL]
Miasteczko Halloween - The.Nightmare.Before.Christmas.1993.[BRRip] [XviD] [Dubbing PL]
Dodał: depesz11
Data: 14-10-2020
Rozmiar: 4.03 GB
Seed: 1
Peer: 0
Pobierz torrent

  • *
Głosów: 0
Kategoria: FILMY -> DIVX / XVID
Zaakceptował: nie wymagał akceptacji
Liczba pobrań: 2
Liczba komentarzy: 0
Ostatnia aktualizacja: 0000-00-00 00:00:00
OPIS:
...( Info )...


reżyseria - Henry Selick
scenariusz - Michael McDowell / Caroline Thompson
gatunek - Animacja / Fantasy / Musical
produkcja - USA
premiera - 9 października 1993 (świat)


...( Opis )...


Film animowany, którego akcja toczy się w mieście strachów i upiorów. Mieszkańcy (kukiełki) hucznie obchodzą swe święto. Mistrz ceremonii wyrusza na nocną przechadzkę, i przypadkowo trafia do świata, w którym obchodzi się Boże Narodzenie. Postanawia przygotować dla ludzi swą własną wersję Gwiazdki i porywa Świętego Mikołaja.

...( Obsada )...

Wojciech Paszkowski
Jack Szkieleton (polski dubbing)

Mieczysław Morański
Naukowiec (polski dubbing)

Krzysztof Kołbasiuk
Babojagołak (polski dubbing)

Joanna Węgrzynowska-Cybińska
Sally (polski dubbing)

Andrzej Chudy
Mikołaj (polski dubbing)

Zbigniew Konopka
Burmistrz (polski dubbing)

Tomasz Steciuk
Barył (polski dubbing)

Jacek Wolszczak
Lock (polski dubbing)

...( Dane Techniczne )...

Miasteczko Halloween - The.Nightmare.Before.Christmas.1993.[BRRip] [XviD] [Dubbing PL]
Format           : Matroska
Format version       : Version 4
File size          : 4.03 GiB
Duration          : 1 h 16 min
Overall bit rate      : 7 524 kb/s
Encoded date        : UTC 2020-10-12 10:34:19
Writing application     : mkvmerge v49.0.0 ('Sick Of Losing Soulmates') 64-bit
Writing library       : libebml v1.4.0 + libmatroska v1.6.1

Video
ID             : 1
Format           : AVC
Format/Info         : Advanced Video Codec
Format profile       : High@L4.1
Format settings       : CABAC / 4 Ref Frames
Format settings, CABAC   : Yes
Format settings, Reference : 4 frames
Codec ID          : V_MPEG4/ISO/AVC
Duration          : 1 h 16 min
Bit rate          : 7 079 kb/s
Width            : 1 920 pixels
Height           : 1 080 pixels
Display aspect ratio    : 16:9
Frame rate mode       : Constant
Frame rate         : 23.976 (24000/1001) FPS
Color space         : YUV
Chroma subsampling     : 4:2:0
Bit depth          : 8 bits
Scan type          : Progressive
Bits/(Pixel*Frame)     : 0.142
Stream size         : 3.79 GiB (94%)
Language          : English
Default           : No
Forced           : No

Audio
ID             : 2
Format           : AC-3
Format/Info         : Audio Coding 3
Commercial name       : Dolby Digital
Codec ID          : A_AC3
Duration          : 1 h 16 min
Bit rate mode        : Constant
Bit rate          : 448 kb/s
Channel(s)         : 6 channels
Channel layout       : L R C LFE Ls Rs
Sampling rate        : 48.0 kHz
Frame rate         : 31.250 FPS (1536 SPF)
Compression mode      : Lossy
Stream size         : 246 MiB (6%)
Language          : Polish
Service kind        : Complete Main
Default           : Yes
Forced           : No
DETALE TORRENTA:[ Pokaż/Ukryj ]

Podobne pliki
Miasteczko Halloween - The Nightmare Before Christmas *1993* [DVDRip.XviD] [Dubbing PL]
Miasteczko Halloween - The Nightmare Before Christmas *1993* [DVDRip.XviD] [Dubbing PL]
Miasteczko Halloween - The Nightmare Before Christmas *1993* [1080p.BluRay.x264]
Miasteczko Halloween - The Nightmare Before Christmas *1993* [1080p.BluRay.x264]
Scooby-Doo: Wesołego Halloween! / Happy Halloween, Scooby-Doo! (2020) [720p] [WEB-DL] [XviD] [AC3-OzW] [Dubbing PL]
Scooby-Doo: Wesołego Halloween! / Happy Halloween, Scooby-Doo! (2020) [720p] [WEB-DL] [XviD] [AC3-OzW] [Dubbing PL]
Scooby-Doo: Wesołego Halloween! - Happy Halloween, Scooby-Doo! (2020) [1080p] [WEB-DL] [x264] [AC3-KiT] [Dubbing PL] [Karibu]
Scooby-Doo: Wesołego Halloween! - Happy Halloween, Scooby-Doo! (2020) [1080p] [WEB-DL] [x264] [AC3-KiT] [Dubbing PL] [Karibu]
Piękna i Bestia- Beauty and the Beast: The Enchanted Christmas *1997*[BRRip][XViD-Gipsy][Dubbing PL]
Piękna  i Bestia- Beauty and the Beast: The Enchanted Christmas *1997*[BRRip][XViD-Gipsy][Dubbing PL]
The Nightmare Before Christmas & Bonus (2006) - Soundtrack [mp3@192kbps]
The Nightmare Before Christmas & Bonus (2006) - Soundtrack [mp3@192kbps]
Artur ratuje Gwiazdkę - Arthur Christmas *2011* [BRRip.x264] [Dubbing PL]
Artur ratuje Gwiazdkę - Arthur Christmas *2011* [BRRip.x264] [Dubbing PL]
Tajemnica Halloween / On Halloween (2020) [720p] [WEB-DL] [XviD] [AC3-MORS] [Lektor PL]
Tajemnica Halloween / On Halloween (2020) [720p] [WEB-DL] [XviD] [AC3-MORS] [Lektor PL]

Komentarze

Brak komentarzy

Zaloguj się aby skomentować