MENU

KATEGORIE

TOPLISTA

Torrent: Pan Tadeusz (1999)[Film PL][1080p][XviD][AC3 5.1]
Pan Tadeusz (1999)[Film PL][1080p][XviD][AC3 5.1]
Dodał: depesz11
Data: 14-10-2020
Rozmiar: 6.58 GB
Seed: 1
Peer: 0
Pobierz torrent

  • *
Głosów: 0
Kategoria: FILMY -> DIVX / XVID
Zaakceptował: nie wymagał akceptacji
Liczba pobrań: 2
Liczba komentarzy: 0
Ostatnia aktualizacja: 0000-00-00 00:00:00
OPIS:
...( Info )...

reżyseria:Andrzej Wajda
scenariusz:Jan Nowina ZarzyckiAndrzej WajdaPiotr Wereśniak
gatunek:Dramat,Kostiumowy
produkcja:Francja,Polska
premiera:18 października 1999 (świat)

...( Opis )...

Adaptacja epopei Adama Mickiewicza. 18-letni Tadeusz Soplica wraca do rodzinnego majątku. Jego stryj chce go wyswatać z Zosią Horeszkówną, by pogodzić zwaśnione od wielu lat rody.

...( Obsada )...

Bogusław Linda - Jacek Soplica (ksiądz Robak)
Marek Kondrat - Hrabia
Grażyna Szapołowska - Telimena
Daniel Olbrychski - Gerwazy
Andrzej Seweryn - Sędzia
Alicja Bachleda Curuś - Zosia
Michał Żebrowski - Tadeusz Soplica

...( Dane Techniczne )...

Pan Tadeusz (1999)[Film PL][1080p][XviD][AC3 5.1].mkv
Format           : Matroska
Format version       : Version 4
File size          : 6.58 GiB
Duration          : 2 h 28 min
Overall bit rate      : 6 346 kb/s
Encoded date        : UTC 2020-10-12 11:09:09
Writing application     : mkvmerge v49.0.0 ('Sick Of Losing Soulmates') 64-bit
Writing library       : libebml v1.4.0 + libmatroska v1.6.1

Video
ID             : 1
Format           : AVC
Format/Info         : Advanced Video Codec
Format profile       : High@L4
Format settings       : CABAC / 4 Ref Frames
Format settings, CABAC   : Yes
Format settings, Reference : 4 frames
Codec ID          : V_MPEG4/ISO/AVC
Duration          : 2 h 28 min
Bit rate          : 6 000 kb/s
Width            : 1 920 pixels
Height           : 1 080 pixels
Display aspect ratio    : 16:9
Frame rate mode       : Constant
Frame rate         : 25.000 FPS
Color space         : YUV
Chroma subsampling     : 4:2:0
Bit depth          : 8 bits
Scan type          : Progressive
Bits/(Pixel*Frame)     : 0.116
Stream size         : 6.11 GiB (93%)
Default           : Yes
Forced           : No

Audio
ID             : 2
Format           : AC-3
Format/Info         : Audio Coding 3
Commercial name       : Dolby Digital
Codec ID          : A_AC3
Duration          : 2 h 28 min
Bit rate mode        : Constant
Bit rate          : 448 kb/s
Channel(s)         : 6 channels
Channel layout       : L R C LFE Ls Rs
Sampling rate        : 44.1 kHz
Frame rate         : 28.711 FPS (1536 SPF)
Compression mode      : Lossy
Stream size         : 476 MiB (7%)
Language          : Polish
Service kind        : Complete Main
Default           : Yes
Forced           : No
DETALE TORRENTA:[ Pokaż/Ukryj ]

Podobne pliki
Kiler-ów 2-óch *1999* [1080p] [WEB-DL] [AC-3] [XviD] [Film PL] [DYZIO]
Kiler-ów 2-óch *1999* [1080p] [WEB-DL] [AC-3] [XviD] [Film PL] [DYZIO]
Pan Tadeusz *1999* [DVDRip.RMVB] [PL]
Pan Tadeusz *1999* [DVDRip.RMVB] [PL]
Odwrócona góra albo film pod strasznym tytułem *1999* [TVRiP.XviD] [Dubbing PL]
Odwrócona góra albo film pod strasznym tytułem *1999* [TVRiP.XviD] [Dubbing PL]
Kiler *1997* [1080p] [WEB-DL] [AC-3] [XviD] [Film polski] [DYZIO]
Kiler *1997* [1080p] [WEB-DL] [AC-3] [XviD] [Film polski] [DYZIO]
Operacja Samum *1999* [DVDRip.DivX Zodiac Rip][AC3] [FILM POLSKI] [marcinc33][Z-T]
Operacja Samum *1999* [DVDRip.DivX Zodiac Rip][AC3] [FILM POLSKI] [marcinc33][Z-T]
Operacja Samum *1999* [DVDRip.RMVB Zodiac Rip][AC3] [FILM POLSKI] [marcinc33][Z-T]
Operacja Samum *1999* [DVDRip.RMVB Zodiac Rip][AC3] [FILM POLSKI] [marcinc33][Z-T]
Drogówka *2013* [1080p] [WEB-DL] [x264] [HE-AAC] [Film PL]
Drogówka *2013* [1080p] [WEB-DL] [x264] [HE-AAC] [Film PL]
Jesteś bogiem *2012* [1080p] [WEB-DL] [x264] [E-AC-3] [Film PL]
Jesteś bogiem *2012* [1080p] [WEB-DL] [x264] [E-AC-3] [Film PL]

Komentarze

Brak komentarzy

Zaloguj się aby skomentować