MENU

KATEGORIE

TOPLISTA

Torrent: Trickster 2020 S01E01 [720p.WEBRip.x264-BAE] [ENG] [Sub: ENG]
Trickster 2020 S01E01 [720p.WEBRip.x264-BAE] [ENG] [Sub: ENG]
Dodał: umezrorv
Data: 15-10-2020
Rozmiar: 829.99 MB
Seed: 1
Peer: 0
Pobierz torrent

  • *
Głosów: 0
Kategoria: TV / SERIALE -> ZAGRANICZNE
Zaakceptował: nie wymagał akceptacji
Liczba pobrań: 2
Liczba komentarzy: 0
Ostatnia aktualizacja: 0000-00-00 00:00:00
OPIS:


[INFO]
https://www.cbc.ca/mediacentre/program/trickster
https://www.imdb.com/title/tt11187454/
https://www.tvmaze.com/shows/42445/trickster
Premiera: 7 października 2020 [Epizodów: 6]
Sieć: CBC
Twórca programu: Michelle Latimer
Gatunek: Dramat

[DESCRIPTION]
Jared jest nastolatkiem, który stara się utrzymać rodzinę na powierzchni. Kiedy tajemniczy nieznajomy Wade przybywa do miasta, chaotyczne życie Jareda wywraca się do góry nogami. A kiedy zaczynają się dziać dziwne rzeczy, zaczyna się wyłaniać prawda o byciu magicznym stworzeniem oszusta. To, co powoli zaczyna się jako małe, cudowne wydarzenia w życiu Jareda, nieuchronnie prowadzi do epickiego starcia magii, potworów i chaosu.

Adaptacja książek z trylogii Son of a Trickster autorstwa wielokrotnie nagradzanego autora Edena Robinsona.

[STAFF]
Joel Oulette jako Jared
Crystle Lightning jako Maggie, matka Jareda
Kalani Queypo jako Wade
Nathan Alexis jako Crashpad, najlepszy przyjaciel Jareda
Anna Lambe jako Sarah
Georgina Lightning jako Sophoe, babcia Jareda

[TECHNICAL_DATA]
Trickster.2020.S01E01.720p.WEBRip.x264-BAE

2020/10/12

Decimated
MediaINFO ?
Video
ID : 1
Format : AVC
Format/INFO : Advanced Video Codec
Format profile : [email protected]
Format settings : CABAC / 8 Ref Frames
Format settings, CABAC : Yes
Format settings, Reference frames : 8 frames
Codec ID : V_MPEG4/ISO/AVC
Duration : 43 min 45 s
Bit rate : 2 266 kb/s
Width : 1 280 pixels
Height : 640 pixels
Display aspect ratio : 2.000
Frame rate mode : Constant
Frame rate : 23.976 (24000/1001) FPS
Color space : YUV
Chroma subsampling : 4:2:0
Bit depth : 8 bits
Scan type : Progressive
Bits/(Pixel*Frame) : 0.115
Stream size : 709 MiB (85%)
Writing library : x264 core 160 r3009 4c9b076
Encoding settings : cabac=1 / ref=8 / deblock=1:-3:-3 / analyse=0x3:0x133 / me=umh / subme=9 / psy=1 / psy_rd=1.00:0.00 / mixed_ref=1 / me_range=16 / chroma_me=1 / trellis=2 / 8x8dct=1 / cqm=0 / deadzone=21,11 / fast_pskip=0 / chroma_qp_offset=-2 / threads=18 / lookahead_threads=1 / sliced_threads=0 / nr=0 / decimate=1 / interlaced=0 / bluray_compat=0 / constrained_intra=0 / bframes=3 / b_pyramid=2 / b_adapt=2 / b_bias=0 / direct=3 / weightb=1 / open_gop=0 / weightp=2 / keyint=250 / keyint_min=23 / scenecut=40 / intra_refresh=0 / rc_lookahead=60 / rc=crf / mbtree=1 / crf=18.0 / qcomp=0.60 / qpmin=0 / qpmax=69 / qpstep=4 / ip_ratio=1.40 / aq=1:0.80
Language : English
Default : Yes
Forced : No
Color range : Limited
Matrix coefficients : BT.709

Audio
ID : 2
Format : AC-3
Format/INFO : Audio Coding 3
Commercial name : Dolby Digital
Codec ID : A_AC3
Duration : 43 min 45 s
Bit rate mode : Constant
Bit rate : 384 kb/s
Channel(s) : 6 channels
Channel layout : L R C LFE Ls Rs
Sampling rate : 48.0 kHz
Frame rate : 31.250 FPS (1536 SPF)
Compression mode : Lossy
Stream size : 120 MiB (14%)
Language : English
Service kind : Complete Main
Default : Yes
Forced : No

Text
ID : 3
Format : UTF-8
Codec ID : S_TEXT/UTF8
Codec ID/INFO : UTF-8 Plain Text
Duration : 43 min 13 s
Bit rate : 95 b/s
Count of elements : 802
Stream size : 30.4 KiB (0%)
Language : English
Default : No
Forced : No

[IMG_VIDEO]
DETALE TORRENTA:[ Pokaż/Ukryj ]

Podobne pliki
Helstrom (2020) [S01E01] [720p] [HULU] [WEBRip] [DD5.1] [XviD-H3Q] [Napisy PL]
Helstrom (2020) [S01E01] [720p] [HULU] [WEBRip] [DD5.1] [XviD-H3Q] [Napisy PL]
Szadź *2020* [S01E01] [1080p] [WEBRip] [x264-666] [SERIAL PL]
Szadź *2020* [S01E01] [1080p] [WEBRip] [x264-666] [SERIAL PL]
Na poboczu - Roadkill S01E01 [720p.AMZN.WEBRip.DDP5.1.x264-NTb] [ENG]
Na poboczu - Roadkill S01E01 [720p.AMZN.WEBRip.DDP5.1.x264-NTb] [ENG]
Miasto niedźwiedzia / Björnstad / Beartown (2020) [S01E01-E02] [720p] [HBO] [WEBRip] [XviD-H3Q] [Lektor PL]
Miasto niedźwiedzia / Björnstad / Beartown (2020) [S01E01-E02] [720p] [HBO] [WEBRip] [XviD-H3Q] [Lektor PL]
Na poboczu / Roadkill (2020) [S01E01] [480p] [AMZN] [WEBRip] [DD2.0] [x264-Ralf] [Lektor PL]
Na poboczu / Roadkill (2020) [S01E01] [480p] [AMZN] [WEBRip] [DD2.0] [x264-Ralf] [Lektor PL]
Tacy właśnie jesteśmy / We Are Who We Are (2020) [S01E01-E02] [480p] [WEBRip] [DD2.0] [x264-Ralf] [Lektor PL]
Tacy właśnie jesteśmy / We Are Who We Are (2020) [S01E01-E02] [480p] [WEBRip] [DD2.0] [x264-Ralf] [Lektor PL]
Bez skrupułów (2020) [S01E01] [720p] [WEB-DL] [x264-H1] [PL]
Bez skrupułów (2020) [S01E01] [720p] [WEB-DL] [x264-H1] [PL]
Bez skrupułów (2020) [S01E01-05] [720p] [WEB-DL] [x264-H1] [PL]
Bez skrupułów (2020) [S01E01-05] [720p] [WEB-DL] [x264-H1] [PL]

Komentarze

Brak komentarzy

Zaloguj się aby skomentować