MENU

KATEGORIE

TOPLISTA

Torrent: George Michael - The Best Of George Michael (2CD) (1998) [FLAC]
George Michael - The Best Of George Michael (2CD) (1998) [FLAC]
Dodał: Beatrix
Data: 15-10-2020
Rozmiar: 0.98 GB
Seed: 1
Peer: 0
Pobierz torrent

  • *
Głosów: 0
Kategoria: MUZYKA -> ZAGRANICZNA
Zaakceptował: nie wymagał akceptacji
Liczba pobrań: 2
Liczba komentarzy: 0
Ostatnia aktualizacja: 0000-00-00 00:00:00
OPIS:
FLAC LOSSLESS 16bit-44kHz
Dynamic Range CD1 - 11
Dynamic Range CD2 - 10

Epic 491705 2


foobar2000 1.4.3 / Dynamic Range Meter 1.1.1
log date: 2020-10-14 18:45:34

--------------------------------------------------------------------------------
Analyzed: George Michael / Ladies & Gentlemen: The Best Of George Michael [CD1]
--------------------------------------------------------------------------------

DR         Peak         RMS     Duration Track
--------------------------------------------------------------------------------
DR11      -0.03 dB   -13.34 dB      6:52 01-Jesus To A Child
DR11      -0.16 dB   -14.46 dB      5:41 02-Father Figure
DR10      -0.03 dB   -12.45 dB      5:00 03-Careless Whisper
DR8       -0.26 dB   -11.97 dB      5:49 04-Don't Let The Sun Go Down On Me (With  Elton John)
DR12      -1.83 dB   -15.84 dB      5:30 05-You Have Been Loved
DR12       0.00 dB   -15.85 dB      4:35 06-Kissing A Fool
DR10      -0.43 dB   -14.20 dB      5:22 07-I Can't Make You Love Me
DR11      -1.01 dB   -13.25 dB      4:48 08-Heal The Pain
DR11      -0.43 dB   -13.49 dB      5:43 09-A Moment With You
DR11      -0.60 dB   -13.06 dB      3:21 10-Desafinado (With  Astrud Gilberto)
DR11      -0.43 dB   -13.36 dB      7:15 11-Cowboys And Angels
DR11      -0.26 dB   -12.44 dB      4:44 12-Praying For Time
DR11      -0.25 dB   -12.88 dB      5:54 13-One More Try
DR11      -0.44 dB   -14.54 dB      4:05 14-A Different Corner

Number of tracks:  14
Official DR value: DR11

Samplerate:        44100 Hz
Channels:          2
Bits per sample:   16
Bitrate:           817 kbps
Codec:             FLAC

--------------------------------------------------------------------------------
Analyzed: George Michael / Ladies & Gentlemen: The Best Of George Michael [CD2]
--------------------------------------------------------------------------------

DR         Peak         RMS     Duration Track
--------------------------------------------------------------------------------
DR9       -0.10 dB   -11.24 dB      4:45 01-Outside
DR9       -1.26 dB   -12.47 dB      4:47 02-As (With Mary J. Blige)
DR10      -0.43 dB   -11.86 dB      5:31 03-Fastlove
DR10      -0.43 dB   -11.62 dB      3:45 04-Too Funky
DR10      -0.49 dB   -11.84 dB      6:29 05-Freedom 90
DR10      -0.54 dB   -11.58 dB      5:38 06-Star People 97
DR10       0.00 dB   -11.94 dB      4:16 07-Killer/Papa Was A Rollin' Stone
DR11      -0.25 dB   -13.34 dB      4:38 08-I Want Your Sex (Part II)
DR10      -1.03 dB   -12.22 dB      4:41 09-The Strangest Thing 97
DR10      -0.12 dB   -11.30 dB      5:02 10-Fantasy
DR11      -1.03 dB   -13.45 dB      6:09 11-Spinning The Wheel
DR10      -1.03 dB   -12.25 dB      4:50 12-Waiting For That Day
DR7       -0.62 dB    -9.35 dB      3:59 13-I Knew You Were Waiting (For Me) (With Aretha Franklin)
DR12       0.00 dB   -14.92 dB      4:13 14-Faith
DR7       -0.12 dB    -9.61 dB      5:26 15-Somebody To Love (With Queen)

Number of tracks:  15
Official DR value: DR10

Samplerate:        44100 Hz
Channels:          2
Bits per sample:   16
Bitrate:           1002 kbps
Codec:             FLAC
DETALE TORRENTA:[ Pokaż/Ukryj ]

Podobne pliki
George Michael - Older ([FLAC] con covers)
George Michael - Older ([FLAC] con covers)
George Michael - Symphonica (Deluxe) *2014* [ FLAC]
George Michael - Symphonica (Deluxe) *2014* [ FLAC]
Wham & George Michael - Greatest Hits [FLAC]
Wham & George Michael - Greatest Hits [FLAC]
George Michael + Wham - The Collection (1983-2006) [FLAC-EAC-CUE]
George Michael + Wham - The Collection (1983-2006) [FLAC-EAC-CUE]
George Michael - Too Funky
George Michael - Too Funky
George Michael & Elton John-Don't Let The Sun Go Down On Me
George Michael & Elton John-Don't Let The Sun Go Down On Me
George Michael - Live In London
George Michael - Live In London
George Michael - Songs from the Last Century - (1999)[EAC-MP
George Michael - Songs from the Last Century - (1999)[EAC-MP

Komentarze

Brak komentarzy

Zaloguj się aby skomentować