MENU

KATEGORIE

TOPLISTA

Torrent: Nokturn - Nocturne.2020 [1080p][WEBRip][x265][Napisy PL]
Nokturn - Nocturne.2020 [1080p][WEBRip][x265][Napisy PL]
Dodał: depesz11
Data: 16-10-2020
Rozmiar: 1.40 GB
Seed: 1
Peer: 0
Pobierz torrent

  • *
Głosów: 0
Kategoria: FILMY -> DIVX / XVID
Zaakceptował: nie wymagał akceptacji
Liczba pobrań: 5
Liczba komentarzy: 0
Ostatnia aktualizacja: 0000-00-00 00:00:00
OPIS:
...( Info )...

Gatunek: Horror
Reżyser: Zu Quirke
Producent: Jason Blum, Jeremy Gold, Marci Wiseman
Data wydania: 13 października 2020 r USA
Czas trwania: 1h 30m

...( Opis )...

Niezwykle utalentowana pianistka zawiera faustowski układ, by wyprzedzić swoją starszą siostrę w prestiżowej instytucji dla muzyków klasycznych.

...( Obsada )...

Sydney Sweeney ... Juliet
Madison Iseman ... Vivian
Jacques Colimon ... Max
Ivan Shaw ... Dr. Cask
Julie Benz ... Cassie
Rodney To ... Wilkins
JoNell Kennedy ... Gordon
John Rothman ... Roger
Brandon Keener ... Davi

...( Dane Techniczne )...

Nokturn - Nocturne.2020 [1080p][WEBRip][x265][Napisy PL].mkv
Format           : Matroska
Format version       : Version 4
File size          : 1.40 GiB
Duration          : 1 h 30 min
Overall bit rate      : 2 226 kb/s
Encoded date        : UTC 2020-10-15 11:43:32
Writing application     : mkvmerge v49.0.0 ('Sick Of Losing Soulmates') 64-bit
Writing library       : libebml v1.4.0 + libmatroska v1.6.1

Video
ID             : 1
Format           : HEVC
Format/Info         : High Efficiency Video Coding
Format profile       : Main 10@L4@Main
Codec ID          : V_MPEGH/ISO/HEVC
Duration          : 1 h 30 min
Bit rate          : 2 000 kb/s
Width            : 1 920 pixels
Height           : 800 pixels
Display aspect ratio    : 2.40:1
Frame rate mode       : Constant
Frame rate         : 23.976 (24000/1001) FPS
Color space         : YUV
Chroma subsampling     : 4:2:0
Bit depth          : 10 bits
Bits/(Pixel*Frame)     : 0.054
Stream size         : 1.26 GiB (90%)
Default           : Yes
Forced           : No

Audio
ID             : 2
Format           : AAC LC
Format/Info         : Advanced Audio Codec Low Complexity
Codec ID          : A_AAC-2
Duration          : 1 h 30 min
Bit rate          : 224 kb/s
Channel(s)         : 6 channels
Channel layout       : C L R Ls Rs LFE
Sampling rate        : 48.0 kHz
Frame rate         : 46.875 FPS (1024 SPF)
Compression mode      : Lossy
Delay relative to video   : -43 ms
Stream size         : 144 MiB (10%)
Language          : English
Default           : Yes
Forced           : No

Text
ID             : 3
Format           : UTF-8
Codec ID          : S_TEXT/UTF8
Codec ID/Info        : UTF-8 Plain Text
Duration          : 1 h 27 min
Bit rate          : 36 b/s
Count of elements      : 747
Stream size         : 23.2 KiB (0%)
Language          : Polish
Default           : Yes
Forced           : No
DETALE TORRENTA:[ Pokaż/Ukryj ]

Podobne pliki
Ill.Final.Contagium.2020.[1080p][WEBRip][x265][Napisy PL]
Ill.Final.Contagium.2020.[1080p][WEBRip][x265][Napisy PL]
The Platform (2019) [1080p] [Webrip] [x265] [EAC3 5.1 Spain] [Napisy PL]
The Platform (2019) [1080p] [Webrip] [x265] [EAC3 5.1 Spain] [Napisy PL]
David.Attenborough.A.Life.on.Our.Planet *2020* [2160p] [NF] [WEBRip] [DDP5.1.] [x265-NTb] [Napisy PL] [zibi6248]
David.Attenborough.A.Life.on.Our.Planet *2020* [2160p] [NF] [WEBRip] [DDP5.1.] [x265-NTb] [Napisy PL]  [zibi6248]
Goblin Slayer: Goblin`s Crown (2020) [BD 1080p HEVC x265 10bit Opus] [Judas] [Multi-Subs] [+Napisy PL(DDL)]
Goblin Slayer: Goblin`s Crown (2020) [BD 1080p HEVC x265 10bit Opus] [Judas] [Multi-Subs] [+Napisy PL(DDL)]
Nocturne (2020) [WEB-DL] [XviD] [MPEG-MORS] [Napisy PL] [H-1]
Nocturne (2020) [WEB-DL] [XviD] [MPEG-MORS] [Napisy PL] [H-1]
A Certain Scientific Railgun T / Toaru Kagaku no Railgun T (Odc. 1-25) (2020) [WEB 1080p HEVC x265 10bit Opus] [Multi-Subs] [Judas] [+Napisy PL(DDL)] (Batch)
A Certain Scientific Railgun T / Toaru Kagaku no Railgun T (Odc. 1-25) (2020) [WEB 1080p HEVC x265 10bit Opus] [Multi-Subs] [Judas] [+Napisy PL(DDL)] (Batch)
Hubie ratuje Halloween - Hubie Halloween *2020* [MULTi] [2160p] [NF] [WEBRip] [DDP5.1.] [x265-DEVIL] [Lektor i Napisy PL] [zibi6248]
Hubie ratuje Halloween - Hubie Halloween *2020* [MULTi] [2160p] [NF] [WEBRip] [DDP5.1.] [x265-DEVIL] [Lektor i Napisy PL] [zibi6248]
After 2 / After We Collided *2020* [1080p] [WEBRip] [Napisy ENG/SRT]
After 2 / After We Collided *2020* [1080p] [WEBRip] [Napisy ENG/SRT]

Komentarze

Brak komentarzy

Zaloguj się aby skomentować