MENU

KATEGORIE

TOPLISTA

Torrent: The Runaways: Prawdziwa historia - The.Runaways.2010.BluRay.1080p [WEBRip][x264][Napisy PL]
 The Runaways: Prawdziwa historia - The.Runaways.2010.BluRay.1080p [WEBRip][x264][Napisy PL]
Dodał: depesz11
Data: 16-10-2020
Rozmiar: 10.00 GB
Seed: 1
Peer: 0
Pobierz torrent

  • *
Głosów: 0
Kategoria: FILMY -> DIVX / XVID
Zaakceptował: nie wymagał akceptacji
Liczba pobrań: 2
Liczba komentarzy: 0
Ostatnia aktualizacja: 0000-00-00 00:00:00
OPIS:
...( Info )...

reżyseria...Floria Sigismondi
scenariusz...Floria Sigismondi
gatunek...Biograficzny / Dramat / Muzyczny
produkcja...USA
premiera...24 stycznia 2010 (świat)

...( Opis )...

Fabuła filmu opowiada historię słynnego zespołu muzycznego The Runaways, który został założony 5 sierpnia 1975 roku przez perkusistkę Sandy West, gitarzystkę Joan Jett i Kari Krome, która po nieudanych próbach bycia wokalistką pozostała jedynie wspierającą zespół autorką tekstów. Szczęśliwe dziewczyny prawie natychmiast wypatrzył producent, Kim Fowley, który akurat szukał czegoś “nowego”, czegoś, co mogłoby być hitem np. dziewczyny ubrane w skóry i bieliznę wykonujące ciężkie brzmienie. Pomysł wypalił i grupa w 2 lata później stała się niezwykle popularna. Ich pierwszym przebojem była “Cherry Bomb”, który potem wykonywały inne zespoły. W roku 1979 zespół ostatecznie się rozpadł z powodu konfliktów na tle finansowym.

...( Obsada )...

Kristen Stewart / Joan Jett
Dakota Fanning / Cherie Currie
Stella Maeve / Sandy West
Shammy Dee / Dj
Hannah Marks / Tammy
Alia Shawkat / Robin
Riley Keough / Marie Currie
Robert Romanus / Nauczyciel gry na gitarze


...( Dane Techniczne )...

The.Runaways.2010.BluRay.1080p [WEBRip][x264][Napisy PL].mkv
Format           : Matroska
Format version       : Version 4
File size          : 10.0 GiB
Duration          : 1 h 46 min
Overall bit rate      : 13.4 Mb/s
Encoded date        : UTC 2020-10-13 02:41:44
Writing application     : mkvmerge v49.0.0 ('Sick Of Losing Soulmates') 64-bit
Writing library       : libebml v1.4.0 + libmatroska v1.6.1

Video
ID             : 1
Format           : AVC
Format/Info         : Advanced Video Codec
Format profile       : High@L4.1
Format settings       : CABAC / 5 Ref Frames
Format settings, CABAC   : Yes
Format settings, Reference : 5 frames
Codec ID          : V_MPEG4/ISO/AVC
Duration          : 1 h 46 min
Bit rate          : 11.9 Mb/s
Width            : 1 920 pixels
Height           : 816 pixels
Display aspect ratio    : 2.35:1
Frame rate mode       : Constant
Frame rate         : 23.976 FPS
Color space         : YUV
Chroma subsampling     : 4:2:0
Bit depth          : 8 bits
Scan type          : Progressive
Bits/(Pixel*Frame)     : 0.317
Stream size         : 8.88 GiB (89%)
Language          : English
Default           : No
Forced           : No

Audio
ID             : 2
Format           : DTS
Format/Info         : Digital Theater Systems
Codec ID          : A_DTS
Duration          : 1 h 46 min
Bit rate mode        : Constant
Bit rate          : 1 509 kb/s
Channel(s)         : 6 channels
Channel layout       : C L R Ls Rs LFE
Sampling rate        : 48.0 kHz
Frame rate         : 93.750 FPS (512 SPF)
Bit depth          : 24 bits
Compression mode      : Lossy
Stream size         : 1.12 GiB (11%)
Title            : DTSHD core5.1 1536k
Language          : English
Default           : Yes
Forced           : No

Text
ID             : 3
Format           : UTF-8
Codec ID          : S_TEXT/UTF8
Codec ID/Info        : UTF-8 Plain Text
Duration          : 1 h 38 min
Bit rate          : 40 b/s
Count of elements      : 759
Stream size         : 29.3 KiB (0%)
Language          : Polish
Default           : Yes
Forced           : No
DETALE TORRENTA:[ Pokaż/Ukryj ]

Podobne pliki
Runaways: Prawdziwa Historia The Runaways (2010) PL [DVDRip XviD]Lektor PL
Runaways: Prawdziwa Historia The Runaways (2010) PL [DVDRip XviD]Lektor PL
Runaways #02 [PL]
Runaways #02 [PL]
RUNAWAYS #01 [Tłumaczenie PL]
RUNAWAYS #01 [Tłumaczenie PL]
Runaways v1 #03 [Tłumaczenie PL]
Runaways v1 #03 [Tłumaczenie PL]
Runaways v1 #04 [Tłumaczenie PL]
Runaways v1 #04 [Tłumaczenie PL]
The Runaways - Same (1976) [FLAC]
The Runaways - Same (1976) [FLAC]
Rick and Morty *2013-* S01-S04 [1080p.Bluray.x264-zyl] [1080p.WEBRip.WEB-DL.x264-zyl-KiT] [Dubbing PL]
Rick and Morty *2013-* S01-S04 [1080p.Bluray.x264-zyl] [1080p.WEBRip.WEB-DL.x264-zyl-KiT] [Dubbing PL]
5 Dni Wojny - 5 Days of War (2010) [1080p Bluray x264 DTS][ENG][Lektor i Napisy PL]
5 Dni Wojny - 5 Days of War (2010) [1080p Bluray x264 DTS][ENG][Lektor i Napisy PL]

Komentarze

Brak komentarzy

Zaloguj się aby skomentować