MENU

KATEGORIE

TOPLISTA

Torrent: Maski szpiega / Legends (2014) [Sezon 1] [720p] [AC3] [AVI] [Lektor PL]
Maski szpiega / Legends (2014) [Sezon 1] [720p] [AC3] [AVI] [Lektor PL]
Dodał: umezrorv
Data: 17-10-2020
Rozmiar: 4.90 GB
Seed: 1
Peer: 0
Pobierz torrent

  • *
Głosów: 0
Kategoria: TV / SERIALE -> ZAGRANICZNE
Zaakceptował: nie wymagał akceptacji
Liczba pobrań: 11
Liczba komentarzy: 0
Ostatnia aktualizacja: 0000-00-00 00:00:00
OPIS:
INFO:
Gatunek: Dramat, Kryminał, Akcja
Produkcja: USA
Stacja telewizyjna:Fox 21
Data premiery serialu: 13 August 2014 (USA)
Czas trwania odcinka około 41 min.

OPIS
Serial na podstawie książki Roberta Littella. Tajny agent CIA, Martin Odum (Sean Bean) ma niesamowitą umiejętność do zmiany tożsamości na potrzeby śledztwa. Wcielenia, którymi dysponuje to tzw."legendy". Po latach przemian Martin nie wie już, która postać jest jego prawdziwą osobowością. Czy agent będzie potrafił wrócić do normalnego życia?

DANE TECH:
Complete name  : Legends S01Maski szpiega.Legends.S01.Lektor PL PL.avi
Format : AVI
Format/INFO : Audio Video Interleave
File size : 499 MiB
Duration : 41mn 47s
Overall bit rate : 1 671 Kbps
Writing application : Lavf55.43.100

Video
ID : 0
Format : xvid
Codec ID : xvid
Duration : 41mn 47s
Bit rate : 1 500 Kbps
Width : 720 pixels
Height : 400 pixels
Display aspect ratio : 16:9
Frame rate : 23.976 fps
Bits/(Pixel*Frame) : 0.217
Stream size : 448 MiB (90%)

Audio
ID : 1
Format : AC-3
Format/INFO : Audio Coding 3
Mode extension : CM (complete main)
Format settings, Endianness : Big
Codec ID : 2000
Duration : 41mn 46s
Bit rate mode : Constant
Bit rate : 160 Kbps
Channel(s) : 2 channels
Channel positions : Front: L R
Sampling rate : 48.0 KHz
Bit depth : 16 bits
Compression mode : Lossy
Stream size : 47.8 MiB (10%)
Alignment : Aligned on interleaves
Interleave, duration : 32 ms (0.77 video frame)
DETALE TORRENTA:[ Pokaż/Ukryj ]

Podobne pliki
Maski szpiega / Legends (2015) [Sezon 2] [1080p] [WEB-DL] [AC3.2.0] [H264-Ralf] [Lektor PL]
Maski szpiega / Legends (2015) [Sezon 2] [1080p] [WEB-DL] [AC3.2.0] [H264-Ralf] [Lektor PL]
The 100 *2014-2020* [Sezon 3] [720p.WEB-DL.x264-NoNaNo] [Lektor PL]
The 100 *2014-2020* [Sezon 3] [720p.WEB-DL.x264-NoNaNo] [Lektor PL]
The 100 *2014-2020* [Sezon 5] [720p.WEB-DL.x264-NoNaNo] [Lektor PL]
The 100 *2014-2020* [Sezon 5] [720p.WEB-DL.x264-NoNaNo] [Lektor PL]
The 100 *2014-2020* [Sezon 6] [720p.WEB-DL.x264-NoNaNo] [Lektor PL]
The 100 *2014-2020* [Sezon 6] [720p.WEB-DL.x264-NoNaNo] [Lektor PL]
The 100 *2014-2020* [Sezon 2] [720p.WEB-DL.x264-NoNaNo] [Lektor PL]
The 100 *2014-2020* [Sezon 2] [720p.WEB-DL.x264-NoNaNo] [Lektor PL]
The 100 *2014-2020* [Sezon 1] [720p.WEB-DL.x264-NoNaNo] [Lektor PL]
The 100 *2014-2020* [Sezon 1] [720p.WEB-DL.x264-NoNaNo] [Lektor PL]
Gra o tron / Game of Thrones (2014) [sezon 4] [720p] [BluRay] [x264-KiKO] [Profesjonalny Lektor Polski]
Gra o tron / Game of Thrones (2014) [sezon 4] [720p] [BluRay] [x264-KiKO] [Profesjonalny Lektor Polski]
Hannibal. Po drugiej stronie maski / Hannibal Rising (2007) [720p] [BDRip] [XviD] [AC3-ELiTE] [Lektor PL]
Hannibal. Po drugiej stronie maski / Hannibal Rising (2007) [720p] [BDRip] [XviD] [AC3-ELiTE] [Lektor PL]

Komentarze

Brak komentarzy

Zaloguj się aby skomentować