MENU

KATEGORIE

TOPLISTA

Torrent: Michael Jackson - Off The Wall + Thriller (24bit-96kHz) [FLAC]
Michael Jackson - Off The Wall + Thriller (24bit-96kHz) [FLAC]
Dodał: Beatrix
Data: 18-10-2020
Rozmiar: 1.77 GB
Seed: 1
Peer: 0
Pobierz torrent

  • *
Głosów: 0
Kategoria: MUZYKA -> ZAGRANICZNA
Zaakceptował: nie wymagał akceptacji
Liczba pobrań: 1
Liczba komentarzy: 0
Ostatnia aktualizacja: 0000-00-00 00:00:00
OPIS:
Michael Jackson
Off The Wall (1979) + Thriller (1982)
FLAC LOSSLESS PBTHAL Vinyl 24bit-96kHz


allmusic.com...

Michael Jackson wasn't merely the biggest pop star of his era, shaping the sound and style of the '70s and '80s; he was one of the defining stars of the 20th century, a musician who changed the contours of American culture. A preternaturally gifted singer and dancer, Jackson first rose to stardom in 1969 as the 11-year-old frontman for his family's band, the Jackson 5. As remarkable a run as the Jackson 5 had -- at the dawn of the '70s, each of their first four singles went to number one and they stayed near the top of the charts for the next five years -- it all served as a preamble to Jackson's solo career. Off the Wall, the dazzling 1979 album co-produced by Quincy Jones, announced Jackson as a mature talent, and the singles "Don't Stop 'til You Get Enough" and "Rock with You" turned it into a blockbuster. Despite its success, Jackson believed Off the Wall was pigeonholed as an R&B record. Determined to break through this glass ceiling, he reunited with Jones to create Thriller, the 1982 album that shattered every music record on the books.


foobar2000 1.3.4 / Dynamic Range Meter 1.1.1
log date: 2014-12-06 19:01:57

--------------------------------------------------------------------------------
Analyzed: Michael Jackson / Off The Wall
--------------------------------------------------------------------------------

DR         Peak         RMS     Duration Track
--------------------------------------------------------------------------------
DR16      -0.70 dB   -19.36 dB      6:05 01-Don't Stop 'Til You Get Enough
DR15      -1.75 dB   -19.84 dB      3:40 02-Rock With You
DR16      -2.38 dB   -20.10 dB      5:14 03-Working Day And Night
DR16      -1.76 dB   -19.65 dB      4:47 04-Get On The Floor
DR15      -1.27 dB   -18.61 dB      4:07 05-Off The Wall
DR15      -1.52 dB   -18.94 dB      3:05 06-Girlfriend
DR11     -10.08 dB   -24.57 dB      3:39 07-She's Out Of My Life
DR13      -5.85 dB   -21.17 dB      4:29 08-I Can't Help It
DR15      -2.66 dB   -19.49 dB      3:49 09-It's The Falling In Love
DR15      -0.70 dB   -18.37 dB      3:41 10-Burn This Disco Out
--------------------------------------------------------------------------------

Number of tracks:  10
Official DR value: DR15

Samplerate:        96000 Hz
Channels:          2
Bits per sample:   24
Bitrate:           2956 kbps
Codec:             FLAC
================================================================================


foobar2000 1.3.1 / Dynamic Range Meter 1.1.1
log date: 2014-05-18 19:52:25

--------------------------------------------------------------------------------
Analyzed: Michael Jackson / Thriller
--------------------------------------------------------------------------------

DR         Peak         RMS     Duration Track
--------------------------------------------------------------------------------
DR13      -1.02 dB   -16.06 dB      6:04 01-Wanna Be Startin' Somethin'
DR14      -1.18 dB   -17.11 dB      4:20 02-Baby Be Mine
DR13      -1.41 dB   -17.32 dB      3:42 03-The Girl Is Mine
DR14      -0.70 dB   -16.21 dB      5:58 04-Thriller
DR14      -1.49 dB   -17.93 dB      4:19 05-Beat It
DR16      -0.70 dB   -18.23 dB      4:57 06-Billie Jean
DR14      -3.42 dB   -19.06 dB      4:06 07-Human Nature
DR14      -2.20 dB   -18.01 dB      3:59 08-P.Y.T. (Pretty Young Thing)
DR15      -3.60 dB   -21.40 dB      4:59 09-The Lady In My Life
--------------------------------------------------------------------------------

Number of tracks:  9
Official DR value: DR14

Samplerate:        96000 Hz
Channels:          2
Bits per sample:   24
Bitrate:           2910 kbps
Codec:             FLAC

DETALE TORRENTA:[ Pokaż/Ukryj ]

Podobne pliki
Michael Jackson - Bad + Dangerous (24bit-96kHz) [FLAC]
Michael Jackson - Bad + Dangerous (24bit-96kHz) [FLAC]
Michael Jackson - Off The Wall (Remastered 2016) [FLAC]
Michael Jackson - Off The Wall (Remastered 2016) [FLAC]
Aretha Franklin - Queen Of Soul Collection [FLAC] [24bit-96kHz]
Aretha Franklin - Queen Of Soul Collection [FLAC] [24bit-96kHz]
Michael Jackson - Thriller
Michael Jackson - Thriller
Michael Jackson - Thriller Video [mp4]
Michael Jackson - Thriller Video [mp4]
Michael Jackson - Thriller [1983] [XviD]
Michael Jackson - Thriller [1983] [XviD]
Michael Jackson -Thriller 25th Ann[2008][CD+4 SkidVid_XviD+Cov]
Michael Jackson -Thriller 25th Ann[2008][CD+4 SkidVid_XviD+Cov]
Michael Jackson -Thriller 25th Anniversary Edition ([DVD-R - ENG] Pop)
Michael Jackson -Thriller 25th Anniversary Edition ([DVD-R - ENG] Pop)

Komentarze

Brak komentarzy

Zaloguj się aby skomentować