MENU

KATEGORIE

TOPLISTA

Torrent: The Outpost S03E02 [720p.WEB.h264-BAE] [ENG] [Sub: ENG]
The Outpost S03E02 [720p.WEB.h264-BAE] [ENG] [Sub: ENG]
Dodał: umezrorv
Data: 18-10-2020
Rozmiar: 761.65 MB
Seed: 1
Peer: 0
Pobierz torrent

  • *
Głosów: 0
Kategoria: TV / SERIALE -> ZAGRANICZNE
Zaakceptował: nie wymagał akceptacji
Liczba pobrań: 2
Liczba komentarzy: 0
Ostatnia aktualizacja: 0000-00-00 00:00:00
OPIS:


[INFO]
https://pl.wikipedia.org/wiki/The_Outpost
https://www.filmweb.pl/serial/The+Outpost-2018-802493
https://www.imdb.com/title/tt7612548/
Stacja telewizyjna USA The CW; POL SciFi Universal
Produkcja: USA; Sezon 3 [Epizodów: 13]
Gatunek: Dramat, Fantasy
Premiera:USA 10 lipca 2018; POL 9 września 2018
Muzyka: James Schafer
Zdjęcia: John Lyde, Benjamin Allred

[DESCRIPTION]
Serial osadzony w klimacie średniowiecza opowiadający losy ostatniej przedstawicielki rasy Czarnokwistych o imieniu Talon. Wiele lat po tym, jak cała jej wioska została zgładzona przez gang brutalnych najemników, a ona sama musiała ukrywać swoje pochodzenie w obawie o swoje życie, Talon udaje się do oddalonej od cywilizacji bazy w poszukiwaniu zabójców swojej rodziny. Wkrótce potem dziewczyna odkrywa, że posiada tajemniczą nadprzyrodzoną moc, którą musi nauczyć się kontrolować, aby uratować siebie i obronić świat przed fanatycznym religijnym dyktatorem.

[STAFF]


Jessica Green jak Talon
Jake Stormoen jako Garret Spears
Imogen Waterhouse jako Gwynn Calkussar/Princess Rosmund
Anand Desai-Barochia jako Janzo
Andrew Howard jako Gate Marshal Cedric Wythers
Robyn Malcolm jako Elinor
Kevin McNally jako The Smith

Role drugoplanowe

Charan Prabhakar jako Danno
Philip Brodie jako ambasador Everit Dred
Adam Johnson jako Munt
Thor Knai jako Kell
Cokey Falkow jako Tiberion Shek
Michael Flynn jako generał Cornelius Calkussar

[TECHNICAL_DATA]
The.Outpost.S03E02.720p.WEB.h264-BAE

2020/10/15
MediaINFO
Video
ID : 1
Format : AVC
Format/INFO : Advanced Video Codec
Format profile : [email protected]
Format settings : CABAC / 3 Ref Frames
Format settings, CABAC : Yes
Format settings, Reference frames : 3 frames
Codec ID : V_MPEG4/ISO/AVC
Duration : 42 min 27 s
Bit rate mode : Constant
Bit rate : 2 432 kb/s
Width : 1 280 pixels
Height : 720 pixels
Display aspect ratio : 16:9
Frame rate mode : Constant
Frame rate : 23.976 (24000/1001) FPS
Color space : YUV
Chroma subsampling : 4:2:0
Bit depth : 8 bits
Scan type : Progressive
Bits/(Pixel*Frame) : 0.110
Stream size : 733 MiB (96%)
Language : English
Default : Yes
Forced : No

Audio
ID : 2
Format : AAC LC
Format/INFO : Advanced Audio Codec Low Complexity
Codec ID : A_AAC-2
Duration : 42 min 27 s
Bit rate : 93.6 kb/s
Channel(s) : 2 channels
Channel layout : L R
Sampling rate : 44.1 kHz
Frame rate : 43.066 FPS (1024 SPF)
Compression mode : Lossy
Delay relative to video : -36 ms
Stream size : 28.4 MiB (4%)
Language : English
Default : Yes
Forced : No

Text
ID : 3
Format : UTF-8
Codec ID : S_TEXT/UTF8
Codec ID/INFO : UTF-8 Plain Text
Duration : 41 min 53 s
Bit rate : 73 b/s
Count of elements : 657
Stream size : 22.5 KiB (0%)
Language : English
Default : No
Forced : No

[IMG_VIDEO]
DETALE TORRENTA:[ Pokaż/Ukryj ]

Podobne pliki
The Outpost S03E01 [720p.WEB.h264-BAE] [ENG] [Sub: ENG]
The Outpost S03E01 [720p.WEB.h264-BAE] [ENG] [Sub: ENG]
Future Man [S03E02] [720p] [WEB-DL] [x264] [AC3] [Lektor PL]
Future Man [S03E02] [720p] [WEB-DL] [x264] [AC3] [Lektor PL]
Heroes S03E02 [720p.HDTV.x264]
Heroes S03E02 [720p.HDTV.x264]
Kyle XY S03E02 [720p.HDTV.X264] [ENG]
Kyle XY S03E02 [720p.HDTV.X264] [ENG]
Eureka S03E02 [720p.HDTV.x264]
Eureka S03E02 [720p.HDTV.x264]
Torchwood S03E02 [720p.HDTV.x264]
Torchwood S03E02 [720p.HDTV.x264]
Chyłka - rewizja (2020)[S03E02] [720p] [WEB-DL] [x264] [AAC-H1] [PL]
Chyłka - rewizja (2020)[S03E02] [720p] [WEB-DL] [x264] [AAC-H1] [PL]
Braterstwo - Brotherhood S03E02 [720p.hdtv.x264]
Braterstwo - Brotherhood S03E02 [720p.hdtv.x264]

Komentarze

Brak komentarzy

Zaloguj się aby skomentować