MENU

KATEGORIE

TOPLISTA

Torrent: Muppety w krainie Oz - The.Muppets.Wizard.of.Oz[2005][PL][DVDRip.XviD]
Muppety w krainie Oz - The.Muppets.Wizard.of.Oz[2005][PL][DVDRip.XviD]
Dodał: umezrorv
Data: 12-11-2020
Rozmiar: 698.85 MB
Seed: 1
Peer: 0
Pobierz torrent

  • *
Głosów: 0
Kategoria: INNE -> POZOSTAŁE
Zaakceptował: nie wymagał akceptacji
Liczba pobrań: 1
Liczba komentarzy: 0
Ostatnia aktualizacja: 0000-00-00 00:00:00
OPIS:
..::(Info)::..

produkcja: USA
czas trwania: 1 godz. 28 min.
gatunek: Familijny, Fantasy, Komedia, Musical, Przygodowy
premiera: 27 kwietnia 2005 (Świat)
reżyseria: Kirk R. Thatcher
scenariusz: Adam F. Goldberg, Tom Martin

..::(Opis)::..
Filmu z Muppetami Jima Hensona. Jest to zabawnie przedstawiona klasyczna historia o Czarnoksiezniku z Krainy Oz. Dorothy Gale jest nastolatką, która marzy o karierze w showbiznesie, ale nie wygląda na to aby marzenie miało sie ziścić w małym miasteczku w Kansas, w którym mieszka, a gdzie nic sie nie dzieje. Podczas burzy zostaje przetransportowana do magicznej krainy Oz. Wraz z kompanią, w ktorej sklad wchodza Toto, Strach na Wróble (Kermit the Frog), Blaszane Coś (Gonzo) i Lew (Fozzie Bear) wyruszają w podróż aby spotkać Czarnoksiężnika spełniającego życzenia i uczynić z Dorotki gwiazdę. Pod drodze spotykają masę dziwacznych postaci, granych chyba przez prawie wszystkie możliwe Muppety i mają masę przygód.

..::(Dane Techniczne)::..

Format                      : AVI
Format/INFO                 : Audio Video Interleave
File size                   : 699 MiB
Duration                    : 1 h 27 min
Overall bit rate            : 1 121 kb/s

Video
ID                          : 0
Format                      : MPEG-4 Visual
Format profile              : Advanced Simple@L5
Format settings             : BVOP2
Format settings, BVOP       : 2
Format settings, QPel       : No
Format settings, GMC        : No warppoints
Format settings, Matrix     : Default (H.263)
Codec ID                    : XVID
Codec ID/Hint               : XviD
Duration                    : 1 h 27 min
Bit rate                    : 979 kb/s
Width                       : 604 pixels
Height                      : 344 pixels
Display aspect ratio        : 16:9
Frame rate                  : 25.000 FPS
Color space                 : YUV
Chroma subsampling          : 4:2:0
Bit depth                   : 8 bits
Scan type                   : Progressive
Compression mode            : Lossy
Bits/(Pixel*Frame)          : 0.189
Stream size                 : 611 MiB (87%)
Writing library             : XviD 63

Audio
ID                          : 1
Format                      : MPEG Audio
Format version              : Version 1
Format profile              : Layer 3
Codec ID                    : 55
Codec ID/Hint               : MP3
Duration                    : 1 h 27 min
Source duration             : 1 h 27 min
Bit rate mode               : Constant
Bit rate                    : 128 kb/s
Channel(s)                  : 2 channels
Sampling rate               : 48.0 kHz
Compression mode            : Lossy
Stream size                 : 79.8 MiB (11%)
Alignment                   : Split across interleaves
Interleave, duration        : 24  ms (0.60 video frame)
DETALE TORRENTA:[ Pokaż/Ukryj ]

Podobne pliki
Muppety z kosmosu - Muppets From Space [DVDRip.XviD] [ENG]
Muppety z kosmosu - Muppets From Space [DVDRip.XviD] [ENG]
Muppety na Manhattanie - The Muppets Take Manhattan *1984* [WS.DVDRip.DivX] [ENG]
Muppety na Manhattanie - The Muppets Take Manhattan *1984* [WS.DVDRip.DivX] [ENG]
Muppety - The Muppets *2011* [720p.BRRip.XviD.AC3-WiZARDS] [Dubbing PL]
Muppety - The Muppets *2011* [720p.BRRip.XviD.AC3-WiZARDS] [Dubbing PL]
Teraz Muppety! - Muppets Now (2020) [Sezon 1] [720p] [WEBRip] [XviD] [AC3-H1] [Dubbing PL]
Teraz Muppety! - Muppets Now (2020) [Sezon 1] [720p] [WEBRip] [XviD] [AC3-H1] [Dubbing PL]
Muppety: Poza prawem - Muppets Most Wanted *2014* [BRRip.XViD-MORS][AC3] [DUBBING PL][Z-T]
Muppety: Poza prawem - Muppets Most Wanted *2014* [BRRip.XViD-MORS][AC3] [DUBBING PL][Z-T]
Wizard of Gore *2007* [DVDRip] [XviD]
Wizard of Gore *2007* [DVDRip] [XviD]
Wizard of Gore *2007* (Unrated) [DVDRip.XviD]
Wizard of Gore *2007* (Unrated) [DVDRip.XviD]
The Wizard of Gore *2007* [DVDRip.XviD-FRAGMENT]
The Wizard of Gore *2007* [DVDRip.XviD-FRAGMENT]

Komentarze

Brak komentarzy

Zaloguj się aby skomentować