MENU

KATEGORIE

TOPLISTA

Torrent: The.Mandalorian *2020* (Sezon 02 E04) [MULTi.SUb] [1080p] [DSNP] [WEB-DL] [DDP5.1.] [Atmos] [H.264-MZABI] [ Napisy PL] [zibi6248] [zibi6248]
The.Mandalorian *2020* (Sezon 02 E04) [MULTi.SUb] [1080p] [DSNP] [WEB-DL] [DDP5.1.] [Atmos] [H.264-MZABI] [ Napisy PL] [zibi6248] [zibi6248]
Dodał: zibi6248
Data: 20-11-2020
Rozmiar: 3.51 GB
Seed: 1
Peer: 0
Pobierz torrent

  • *
Głosów: 1 Ocena: 5
Kategoria: TV / SERIALE -> ZAGRANICZNE
Zaakceptował: nie wymagał akceptacji
Liczba pobrań: 12
Liczba komentarzy: 0
Ostatnia aktualizacja: 2020-11-20 13:52:13
OPIS:
...( Info )...

Produkcja: USA
Gatunek: Sci-Fi, Akcja, Przygodowy
Premiera: 30 listopada 2020 (Świat)
Twórcy:  Jon Favreau
Platforma : Disney+
Sezon: 2
Epizod: 04
https://www.youtube.com/watch?v=eW7Twd85m2g

...( Opis )...

Akcja serialu rozgrywa się kilka lat po "Powrocie Jedi" w miejscu znanym jako Najdalsze Obrzeże. Mieszkańców niespecjalnie obchodzi, że Imperium upadło, a na jego gruzach powstała Nowa Republika. Organizacja Najwyższy Porządek jeszcze się nie narodziła. Fabuła skupia się na perypetiach samotnego rewolwerowca, jednego z Mandalorian, słynnych najemników i łowców nagród, rozpoznawalnych przez charakterystyczną zbroję

...( Obsada )...

★ Pedro Pascal .... Mandalorianin / Din Djarin
★ Carl Weathers .... Greef Karga
★ Gina Carano .... Cara Dune
★ Nick Nolte .... Kuiil  
★ Giancarlo Esposito .... Moff Gideon
★ Werner Herzog .... Klient
★ Emily Swallow .... Płatnerz
★ Taika Waititi .... IG-11  

...( Dane Techniczne )...

Video
ID : 1
Format : AVC
Format/Info : Advanced Video Codec
Format profile : High@L4.1
Format settings : CABAC / 5 Ref Frames
Format settings, CABAC : Yes
Format settings, Reference frames : 5 frames
Codec ID : V_MPEG4/ISO/AVC
Duration : 37 min 5 s
Bit rate : 12.8 Mb/s
Width : 1 920 pixels
Height : 808 pixels
Display aspect ratio : 2.40:1
Frame rate mode : Constant
Frame rate : 23.976 (24000/1001) FPS
Color space : YUV
Chroma subsampling : 4:2:0
Bit depth : 8 bits
Scan type : Progressive
Bits/(Pixel*Frame) : 0.344
Stream size : 3.31 GiB (94%)
Writing library : x264 core 160 r3000 33f9e14
Encoding settings : cabac=1 / ref=5 / deblock=1:3:-3 / analyse=0x3:0x133 / me=umh / subme=10 / psy=1 / psy_rd=1.00:0.00 / mixed_ref=1 / me_range=32 / chroma_me=1 / trellis=2 / 8x8dct=1 / cqm=0 / deadzone=21,11 / fast_pskip=0 / chroma_qp_offset=-2 / threads=18 / lookahead_threads=3 / sliced_threads=0 / nr=0 / decimate=0 / interlaced=0 / bluray_compat=0 / constrained_intra=0 / bframes=8 / b_pyramid=2 / b_adapt=2 / b_bias=0 / direct=3 / weightb=1 / open_gop=0 / weightp=2 / keyint=250 / keyint_min=23 / scenecut=40 / intra_refresh=0 / rc=crf / mbtree=0 / crf=13.5 / qcomp=0.60 / qpmin=0 / qpmax=69 / qpstep=4 / ip_ratio=1.20 / pb_ratio=1.30 / aq=3:0.80
Default : Yes
Forced : No
Color range : Limited
Color primaries : BT.709
Transfer characteristics : BT.709
Matrix coefficients : BT.709

Audio
ID : 2
Format : E-AC-3 JOC
Format/Info : Enhanced AC-3 with Joint Object Coding
Commercial name : Dolby Digital Plus with Dolby Atmos
Codec ID : A_EAC3
Duration : 37 min 5 s
Bit rate mode : Constant
Bit rate : 768 kb/s
Channel(s) : 6 channels
Channel layout : L R C LFE Ls Rs
Sampling rate : 48.0 kHz
Frame rate : 31.250 FPS (1536 SPF)
Compression mode : Lossy
Stream size : 204 MiB (6%)
Title : English
Language : English
Service kind : Complete Main
Default : Yes
Forced : No
Complexity index : 16
Number of dynamic objects : 15
Bed channel count : 1 channel
Bed channel configuration : LFE

Text #1
ID : 3
Format : UTF-8
Codec ID : S_TEXT/UTF8
Codec ID/Info : UTF-8 Plain Text
Duration : 34 min 0 s
Bit rate : 49 b/s
Count of elements : 357
Stream size : 12.2 KiB (0%)
Title : English
Language : English
Default : No
Forced : No

Text #2
ID : 4
Format : UTF-8
Codec ID : S_TEXT/UTF8
Codec ID/Info : UTF-8 Plain Text
Duration : 34 min 0 s
Bit rate : 55 b/s
Count of elements : 437
Stream size : 13.8 KiB (0%)
Title : English [SDH]
Language : English
Default : No
Forced : No

Text #3
ID : 5
Format : UTF-8
Codec ID : S_TEXT/UTF8
Codec ID/Info : UTF-8 Plain Text
Duration : 36 min 48 s
Bit rate : 39 b/s
Count of elements : 353
Stream size : 10.6 KiB (0%)
Title : Brazilian Portuguese
Language : Portuguese
Default : No
Forced : No

Text #4
ID : 6
Format : UTF-8
Codec ID : S_TEXT/UTF8
Codec ID/Info : UTF-8 Plain Text
Duration : 36 min 48 s
Bit rate : 34 b/s
Count of elements : 247
Stream size : 9.40 KiB (0%)
Title : Danish
Language : Danish
Default : No
Forced : No

Text #5
ID : 7
Format : UTF-8
Codec ID : S_TEXT/UTF8
Codec ID/Info : UTF-8 Plain Text
Duration : 36 min 48 s
Bit rate : 36 b/s
Count of elements : 346
Stream size : 9.88 KiB (0%)
Title : German
Language : German
Default : No
Forced : No

Text #6
ID : 8
Format : UTF-8
Codec ID : S_TEXT/UTF8
Codec ID/Info : UTF-8 Plain Text
Duration : 36 min 48 s
Bit rate : 34 b/s
Count of elements : 353
Stream size : 9.36 KiB (0%)
Title : European Spanish
Language : Spanish
Default : No
Forced : No

Text #7
ID : 9
Format : UTF-8
Codec ID : S_TEXT/UTF8
Codec ID/Info : UTF-8 Plain Text
Duration : 36 min 48 s
Bit rate : 38 b/s
Count of elements : 352
Stream size : 10.3 KiB (0%)
Title : Finnish
Language : Finnish
Default : No
Forced : No

Text #8
ID : 10
Format : UTF-8
Codec ID : S_TEXT/UTF8
Codec ID/Info : UTF-8 Plain Text
Duration : 36 min 48 s
Bit rate : 34 b/s
Count of elements : 344
Stream size : 9.38 KiB (0%)
Title : French
Language : French
Default : No
Forced : No

Text #9
ID : 11
Format : UTF-8
Codec ID : S_TEXT/UTF8
Codec ID/Info : UTF-8 Plain Text
Duration : 36 min 48 s
Bit rate : 38 b/s
Count of elements : 353
Stream size : 10.5 KiB (0%)
Title : Italian
Language : Italian
Default : No
Forced : No

Text #10
ID : 12
Format : UTF-8
Codec ID : S_TEXT/UTF8
Codec ID/Info : UTF-8 Plain Text
Duration : 36 min 48 s
Bit rate : 38 b/s
Count of elements : 292
Stream size : 10.4 KiB (0%)
Title : Dutch
Language : Dutch
Default : No
Forced : No

Text #11
ID : 13
Format : UTF-8
Codec ID : S_TEXT/UTF8
Codec ID/Info : UTF-8 Plain Text
Duration : 36 min 48 s
Bit rate : 33 b/s
Count of elements : 353
Stream size : 8.97 KiB (0%)
Title : Norwegian
Language : Norwegian
Default : No
Forced : No

Text #12
ID : 14
Format : UTF-8
Codec ID : S_TEXT/UTF8
Codec ID/Info : UTF-8 Plain Text
Duration : 36 min 48 s
Bit rate : 35 b/s
Count of elements : 346
Stream size : 9.50 KiB (0%)
Title : Polish
Language : Polish
Default : No
Forced : No

Text #13
ID : 15
Format : UTF-8
Codec ID : S_TEXT/UTF8
Codec ID/Info : UTF-8 Plain Text
Duration : 36 min 48 s
Bit rate : 38 b/s
Count of elements : 342
Stream size : 10.3 KiB (0%)
Title : Portuguese
Language : Portuguese
Default : No
Forced : No

Text #14
ID : 16
Format : UTF-8
Codec ID : S_TEXT/UTF8
Codec ID/Info : UTF-8 Plain Text
Duration : 36 min 48 s
Bit rate : 36 b/s
Count of elements : 353
Stream size : 9.85 KiB (0%)
Title : Spanish
Language : Spanish
Default : No
Forced : No

Text #15
ID : 17
Format : UTF-8
Codec ID : S_TEXT/UTF8
Codec ID/Info : UTF-8 Plain Text
Duration : 36 min 48 s
Bit rate : 38 b/s
Count of elements : 281
Stream size : 10.4 KiB (0%)
Title : Swedish
Language : Swedish
Default : No
Forced : No
DETALE TORRENTA:[ Pokaż/Ukryj ]

Podobne pliki
The.Mandalorian *2020* (Sezon 02 E03) [MULTi.SUb] [1080p] [DSNP] [WEB-DL] [DDP5.1.] [Atmos] [H.264-MZABI] [ Napisy PL] [zibi6248]
The.Mandalorian *2020* (Sezon 02 E03) [MULTi.SUb] [1080p] [DSNP] [WEB-DL] [DDP5.1.] [Atmos] [H.264-MZABI] [ Napisy PL] [zibi6248]
The.Mandalorian *2020* (Sezon 02 E02) [MULTi.SUb] [1080p] [DSNP] [WEB-DL] [DDP5.1.] [Atmos] [H.264-PHOENIX] [ Napisy PL] [zibi6248]
The.Mandalorian *2020* (Sezon 02 E02) [MULTi.SUb] [1080p] [DSNP] [WEB-DL] [DDP5.1.] [Atmos] [H.264-PHOENIX] [ Napisy PL] [zibi6248]
The.Mandalorian *2020* (Sezon 02 E01) [MULTi] [1080p] [DSNP] [WEB-DL] [DDP5.1.] [Atmos] [H.264-DEVIL] [Dubbing + Napisy PL] [zibi6248]
The.Mandalorian *2020* (Sezon 02 E01) [MULTi] [1080p] [DSNP] [WEB-DL] [DDP5.1.] [Atmos] [H.264-DEVIL] [Dubbing + Napisy PL] [zibi6248]
The.Mandalorian *2020* (Sezon 02 E03) [MULTi] [1080p] [DSNP] [WEB-DL] [DDP5.1.] [Atmos] [H.264-DEVIL] [Dubbing + Napisy PL] [zibi6248]
The.Mandalorian *2020* (Sezon 02 E03) [MULTi] [1080p] [DSNP] [WEB-DL] [DDP5.1.] [Atmos] [H.264-DEVIL] [Dubbing + Napisy PL] [zibi6248]
The.Mandalorian *2020* (Sezon 02 E02) [MULTi] [1080p] [DSNP] [WEB-DL] [DDP5.1.] [Atmos] [H.264-DEVIL] [Dubbing + Napisy PL] [zibi6248]
The.Mandalorian *2020* (Sezon 02 E02) [MULTi] [1080p] [DSNP] [WEB-DL] [DDP5.1.] [Atmos] [H.264-DEVIL] [Dubbing + Napisy PL] [zibi6248]
The.Mandalorian *2020* (Sezon 02 E04) [MULTi] [1080p] [DSNP] [WEB-DL] [DDP5.1.] [Atmos] [H.264-DEVIL] [Dubbing + Napisy PL] [zibi6248]
The.Mandalorian *2020* (Sezon 02 E04) [MULTi] [1080p] [DSNP] [WEB-DL] [DDP5.1.] [Atmos] [H.264-DEVIL] [Dubbing + Napisy PL] [zibi6248]
Enola.Holmes *2020* [MULTi.SUB.] [1080p] [NF] [WEBRip] [DDP5.1] [Atmos] [x264-CM] [Napisy PL] [zibi6248]
Enola.Holmes *2020* [MULTi.SUB.] [1080p] [NF] [WEBRip] [DDP5.1] [Atmos] [x264-CM] [Napisy PL]  [zibi6248]
The.Mandalorian *2020* (S02E03) [MULTi] [2160p] [WEB-DL] [DDP5.1.] [HDR] [x265-tds] [Dubbing i Napisy PL] [zibi6248]
The.Mandalorian *2020* (S02E03) [MULTi] [2160p] [WEB-DL] [DDP5.1.] [HDR] [x265-tds] [Dubbing i Napisy PL] [zibi6248]

Komentarze

Brak komentarzy

Zaloguj się aby skomentować