MENU

KATEGORIE

TOPLISTA

Torrent: Jimi Hendrix - Smash Hits (1968) (PBTHAL LP 24-96) [FLAC]
Jimi Hendrix - Smash Hits (1968) (PBTHAL LP 24-96) [FLAC]
Dodał: Beatrix
Data: 22-11-2020
Rozmiar: 807.05 MB
Seed: 1
Peer: 0
Pobierz torrent

  • *
Głosów: 0
Kategoria: MUZYKA -> ZAGRANICZNA
Zaakceptował: nie wymagał akceptacji
Liczba pobrań: 1
Liczba komentarzy: 0
Ostatnia aktualizacja: 0000-00-00 00:00:00
OPIS:
Jimi Hendrix Experience
Smash Hits (Reissue) (1968)
FLAC LOSSLESS 24bit-96kHz
PBTHAL Vinyl Rip


allmusic.com...

One of the first hits compilations assembled of Jimi Hendrix's catalog, Smash Hits remains one of the best, since it keeps its focus narrow and never tries to extend its reach. Basically, this album contains the songs everybody knows from Hendrix, drawing heavily from Are You Experienced?, plus adding the non-LP "Red House," "51st Anniversary," and "Highway Chile." Those non-LP selections may still make this worth seeking out, even if they've appeared on subsequent hits collections, but the main strength of Smash Hits is that it contains the best-known big-name songs in one place. Maybe not enough to make the collection essential, but still enough to make it a representative, accurate sampler.


foobar2000 1.4.3 / Dynamic Range Meter 1.1.1
log date: 2020-11-12 07:15:06

--------------------------------------------------------------------------------
Analyzed: The Jimi Hendrix Experience / Smash Hits
--------------------------------------------------------------------------------

DR         Peak         RMS     Duration Track
--------------------------------------------------------------------------------
DR10      -4.08 dB   -15.96 dB      2:49 01-Purple Haze
DR11      -1.98 dB   -15.01 dB      2:43 02-Fire
DR12      -2.00 dB   -16.56 dB      3:19 03-The Wind Cries Mary
DR10      -2.65 dB   -15.39 dB      2:35 04-Can You See Me
DR11      -0.70 dB   -14.30 dB      3:26 05-Hey Joe
DR10      -1.67 dB   -14.72 dB      3:59 06-All Along The Watchtower
DR10      -1.90 dB   -15.42 dB      3:36 07-Stone Free
DR10      -2.47 dB   -15.20 dB      2:19 08-Crosstown Traffic
DR11      -2.95 dB   -15.52 dB      3:40 09-Manic Depression
DR12      -3.33 dB   -16.35 dB      2:49 10-Remember
DR10      -2.78 dB   -14.90 dB      3:52 11-Red House
DR10      -2.68 dB   -15.20 dB      3:18 12-Foxy Lady

Number of tracks:  12
Official DR value: DR11

Samplerate:        96000 Hz
Channels:          2
Bits per sample:   24
Bitrate:           2874 kbps
Codec:             FLAC
DETALE TORRENTA:[ Pokaż/Ukryj ]

Podobne pliki
Jimi Hendrix - Electric Ladyland (1968) (PBTHAL LP 24-96) [FLAC]
Jimi Hendrix - Electric Ladyland (1968) (PBTHAL LP 24-96) [FLAC]
Jimi Hendrix - Axis Bold As Love (1967) (PBTHAL LP 24-96) [FLAC]
Jimi Hendrix - Axis Bold As Love (1967) (PBTHAL LP 24-96) [FLAC]
The Jimi Hendrix Experience - Denver (14.02.1968) [mp3@192]
The Jimi Hendrix Experience - Denver (14.02.1968) [mp3@192]
The Jimi Hendrix Experience - Electric Ladyland (1968)
The Jimi Hendrix Experience - Electric Ladyland (1968)
Jimi Hendrix - West Coast Seattle Boy The Jimi Hendrix Anthology (2010)
Jimi Hendrix - West Coast Seattle Boy The Jimi Hendrix Anthology (2010)
Jimi Hendrix - Blues - Flac
Jimi Hendrix - Blues - Flac
Jimi Hendrix - Am I Blue [2004] [FLAC]
Jimi Hendrix - Am I Blue [2004] [FLAC]
Jimi Hendrix - Live At Woodstock [FLAC]
Jimi Hendrix - Live At Woodstock [FLAC]

Komentarze

Brak komentarzy

Zaloguj się aby skomentować