MENU

KATEGORIE

TOPLISTA

Torrent: Nazareth - Greatest Hits (1975) (UK PBTHAL LP 24-96) [FLAC]
Nazareth - Greatest Hits (1975) (UK PBTHAL LP 24-96) [FLAC]
Dodał: Beatrix
Data: 23-11-2020
Rozmiar: 921.16 MB
Seed: 1
Peer: 0
Pobierz torrent

  • *
Głosów: 0
Kategoria: MUZYKA -> ZAGRANICZNA
Zaakceptował: nie wymagał akceptacji
Liczba pobrań: 1
Liczba komentarzy: 0
Ostatnia aktualizacja: 0000-00-00 00:00:00
OPIS:
Nazareth
Greatest Hits (1975)
FLAC LOSSLESS 24bit-96kHz
PBTHAL Vinyl Rip


allmusic.com...

Greatest Hits is a good 12-track collection that contains the bulk of the hard rock group's best-known material, including "Love Hurts," "Bad Bad Boy, " "Hair of the Dog, " "Holy Roller" and "Shanghai'd in Shanghai." There are more extensive compilations available, but for most casual fans, this set has all the necessary items.


foobar2000 1.4.3 / Dynamic Range Meter 1.1.1
log date: 2020-11-11 10:04:33

--------------------------------------------------------------------------------
Analyzed: Nazareth / Greatest Hits
--------------------------------------------------------------------------------

DR         Peak         RMS     Duration Track
--------------------------------------------------------------------------------
DR11      -1.88 dB   -15.37 dB      3:51 01-Razamanaz
DR13      -0.91 dB   -15.43 dB      3:25 02-Holy Roller
DR12      -1.41 dB   -15.92 dB      3:45 03-Shanghai'd In Shanghai
DR13      -0.79 dB   -16.11 dB      3:53 04-Love Hurts
DR12      -1.24 dB   -15.55 dB      3:21 05-Turn On Your Reciever
DR12      -2.63 dB   -15.78 dB      3:57 06-Bad Bad Boy
DR12      -1.81 dB   -16.25 dB      3:24 07-This Flight Tonight
DR12      -1.82 dB   -15.94 dB      3:43 08-Broken Down Angel
DR13      -2.13 dB   -16.81 dB      3:19 09-Hair Of The Dog
DR13      -3.59 dB   -21.05 dB      3:48 10-Sunshine
DR13      -2.01 dB   -17.15 dB      3:32 11-My White Bicycle
DR12      -2.40 dB   -16.46 dB      3:51 12-Woke Up This Morning

Number of tracks:  12
Official DR value: DR12

Samplerate:        96000 Hz
Channels:          2
Bits per sample:   24
Bitrate:           2904 kbps
Codec:             FLAC

DETALE TORRENTA:[ Pokaż/Ukryj ]

Podobne pliki
America - History Greatest Hits (1975) (PBTHAL LP 24-96) [FLAC]
America - History Greatest Hits (1975) (PBTHAL LP 24-96) [FLAC]
Steely Dan - Greatest Hits (1978) (RL PBTHAL LP 24-96) [FLAC]
Steely Dan - Greatest Hits (1978) (RL PBTHAL LP 24-96) [FLAC]
Steve Miller Band - Greatest Hits 74-78 (PBTHAL LP 24-96) [FLAC]
Steve Miller Band - Greatest Hits 74-78 (PBTHAL LP 24-96) [FLAC]
Hall & Oates - Greatest Hits (1983) (PBTHAL LP 24-96) [FLAC]
Hall & Oates - Greatest Hits (1983) (PBTHAL LP 24-96) [FLAC]
Neil Diamond - 12 Greatest Hits (1974) (PBTHAL LP 24-96) [FLAC]
Neil Diamond - 12 Greatest Hits (1974) (PBTHAL LP 24-96) [FLAC]
James Taylor - Greatest Hits (1976) (PBTHAL LP 24-96) [FLAC]
James Taylor - Greatest Hits (1976) (PBTHAL LP 24-96) [FLAC]
Bob Seger & The Silver Bullet Band - Greatest Hits (1994) (PBTHAL LP 24-96) [FLAC]
Bob Seger & The Silver Bullet Band - Greatest Hits (1994) (PBTHAL LP 24-96) [FLAC]
Eagles - Their Greatest Hits {1971-1975} *1976* FLAC [Vinyl Rip]
Eagles - Their Greatest Hits {1971-1975} *1976* FLAC [Vinyl Rip]

Komentarze

Brak komentarzy

Zaloguj się aby skomentować