MENU

KATEGORIE

TOPLISTA

Torrent: Krudowie 2: Nowa era - The Croods A New Age *2020* [1080p] [WEBRip] [DD5.1] [x264-CM] [ENG] [zibi6248]
Krudowie 2: Nowa era - The Croods A New Age *2020* [1080p] [WEBRip] [DD5.1] [x264-CM] [ENG] [zibi6248]
Dodał: zibi6248
Data: 17-12-2020
Rozmiar: 4.07 GB
Seed: 1
Peer: 0
Pobierz torrent

  • *
Głosów: 1 Ocena: 5
Kategoria: DLA DZIECI -> FILMY / BAJKI
Zaakceptował: nie wymagał akceptacji
Liczba pobrań: 17
Liczba komentarzy: 0
Ostatnia aktualizacja: 0000-00-00 00:00:00
OPIS:
...( Info )...

Produkcja: USA
Gatunek: Animacja, Komedia, Przygodowy
Premiera: 30 kwietnia 2021 (Polska)
Reżyseria: Joel Crawford
Scenariusz: Kevin Hageman, Dan Hageman
https://www.youtube.com/watch?v=oq2kbqEdpUo

...( Opis )...

Prehistoryczna rodzina Krudów jest wyzwaniem dla rywalizującej z nią rodziny Bettermanów, która twierdzi, że jest lepsza i bardziej rozwinięta.

...( Obsada )...

★ Nicolas Cage .... Grug (głos)  Nicolas Cage
★ Emma Stone .... Eep (głos)  Emma Stone
★ Ryan Reynolds .... Guy (głos)  Ryan Reynolds
★ Catherine Keener .... Ugga (głos)  Catherine Keener
★ Cloris Leachman .... Babcia (głos)  Cloris Leachman
★ Clark Duke .... Thunk (głos)  Clark Duke
★ Leslie Mann .... Hope (głos)  Leslie Mann
★ Peter Dinklage .... Phil (głos)  Peter Dinklage

...( Dane Techniczne )...

Video
ID : 1
Format : AVC
Format/Info : Advanced Video Codec
Format profile : High@L4
Format settings : CABAC / 2 Ref Frames
Format settings, CABAC : Yes
Format settings, Reference frames : 2 frames
Codec ID : V_MPEG4/ISO/AVC
Duration : 1 h 35 min
Bit rate : 5 739 kb/s
Width : 1 920 pixels
Height : 1 080 pixels
Display aspect ratio : 16:9
Frame rate mode : Constant
Frame rate : 23.976 (24000/1001) FPS
Color space : YUV
Chroma subsampling : 4:2:0
Bit depth : 8 bits
Scan type : Progressive
Bits/(Pixel*Frame) : 0.115
Stream size : 3.82 GiB (94%)
Writing library : x264 core 155 r2901 7d0ff22
Language : English
Default : Yes
Forced : No
Color range : Limited
Color primaries : BT.709
Transfer characteristics : BT.709
Matrix coefficients : BT.709

Audio
ID : 2
Format : AC-3
Format/Info : Audio Coding 3
Commercial name : Dolby Digital
Codec ID : A_AC3
Duration : 1 h 35 min
Bit rate mode : Constant
Bit rate : 384 kb/s
Channel(s) : 6 channels
Channel layout : L R C LFE Ls Rs
Sampling rate : 48.0 kHz
Frame rate : 31.250 FPS (1536 SPF)
Compression mode : Lossy
Stream size : 262 MiB (6%)
Language : English
Service kind : Complete Main
Default : Yes
Forced : No

Text
ID : 3
Format : UTF-8
Codec ID : S_TEXT/UTF8
Codec ID/Info : UTF-8 Plain Text
Duration : 1 h 34 min
Bit rate : 73 b/s
Count of elements : 1717
Stream size : 50.8 KiB (0%)
Language : English
Default : Yes
Forced : No
SCREENY:
    
TRAILER:
DETALE TORRENTA:[ Pokaż/Ukryj ]

Podobne pliki
Krudowie 2: Nowa era - The Croods: A New Age (2020) [1080p] [WEB-DL] [x264] [DD2.0-RX] [Lektor PL]
Krudowie 2: Nowa era - The Croods: A New Age (2020) [1080p] [WEB-DL] [x264] [DD2.0-RX] [Lektor PL]
Krudowie 2: Nowa era - The Croods: A New Age (2020) [1080p] [WEB-DL] [x264] [DD5.1-RX] [Napisy PL]
Krudowie 2: Nowa era - The Croods: A New Age (2020) [1080p] [WEB-DL] [x264] [DD5.1-RX] [Napisy PL]
Krudowie 2: Nowa era - The Croods A New Age *2020* [AMZN] [2160p] [WEB-DL] [AC3] [HDR] [HEVC-EVO] [Lektor pl] [zibi6248]
Krudowie 2: Nowa era - The Croods A New Age *2020* [AMZN] [2160p] [WEB-DL] [AC3] [HDR] [HEVC-EVO] [Lektor pl] [zibi6248]
Krudowie 2: Nowa era - The Croods: A New Age (2020) [720p] [XviD] [AC3-H1] [Lektor PL]
Krudowie 2: Nowa era - The Croods: A New Age (2020) [720p] [XviD] [AC3-H1] [Lektor PL]
Krudowie 2: Nowa era - The Croods: A New Age (2020) [2160p] [AMZN] [WEB-DL] [HDR.HEVC] [DD2.0-RX] [Lektor PL]
Krudowie 2: Nowa era - The Croods: A New Age (2020) [2160p] [AMZN] [WEB-DL] [HDR.HEVC] [DD2.0-RX] [Lektor PL]
Wiedżmy-The.Witches *2020* [1080p] [HMAX] [WEBRip] [DD5.1.] [x264-MZABI] [ENG] [zibi6248]
 Wiedżmy-The.Witches *2020* [1080p] [HMAX] [WEBRip] [DD5.1.] [x264-MZABI] [ENG] [zibi6248]
Echo Boomers *2020* [1080p] [AMZN] [WEBRip] [DDP5.1.] [x264-NTG] [Napisy pl] [zibi6248]
Echo Boomers *2020* [1080p] [AMZN] [WEBRip] [DDP5.1.] [x264-NTG] [Napisy pl] [zibi6248]
Dezerter - The Turncoat - Der Überläufer *2020* [Mini serial] [1080p] [WEBRip] [x264] [DD2.0-FOX] [Lektor PL] [zibi6248]
Dezerter - The Turncoat - Der Überläufer *2020* [Mini serial] [1080p] [WEBRip] [x264] [DD2.0-FOX] [Lektor PL] [zibi6248]

Komentarze

Brak komentarzy

Zaloguj się aby skomentować