MENU

KATEGORIE

TOPLISTA

Torrent: Deep Purple - Shades Of Deep Purple (1968) (PBTHAL LP 24-96) [FLAC]
Deep Purple - Shades Of Deep Purple (1968) (PBTHAL LP 24-96) [FLAC]
Dodał: Beatrix
Data: 09-01-2021
Rozmiar: 867.58 MB
Seed: 1
Peer: 0
Pobierz torrent

  • *
Głosów: 0
Kategoria: MUZYKA -> ZAGRANICZNA
Zaakceptował: nie wymagał akceptacji
Liczba pobrań: 2
Liczba komentarzy: 0
Ostatnia aktualizacja: 0000-00-00 00:00:00
OPIS:
Deep Purple
Shades Of Deep Purple (1968)
FLAC LOSSLESS 24bit-96kHz
UK PBTHAL Vinyl Rip


allmusic.com...

The usual perception of early Deep Purple is that it was a band with a lot of potential in search of a direction. And that might be true of their debut LP, put together in three days of sessions in May of 1968, but it's still a hell of an album. From the opening bars of "And the Address," it's clear that they'd gotten down the fundamentals of heavy metal from day one, and at various points the electricity and the beat just surge forth in ways that were startlingly new in the summer of 1968. Ritchie Blackmore never sounded less at ease as a guitarist than he does on this album.


foobar2000 1.4.3 / Dynamic Range Meter 1.1.1
log date: 2021-01-08 12:03:11

--------------------------------------------------------------------------------
Analyzed: Deep Purple / Shades Of Deep Purple
--------------------------------------------------------------------------------

DR         Peak         RMS     Duration Track
--------------------------------------------------------------------------------
DR11      -0.90 dB   -14.44 dB      4:34 01-And The Address
DR11      -0.70 dB   -15.45 dB      4:20 02-Hush
DR11      -1.17 dB   -14.50 dB      3:37 03-One More Rain Day
DR11      -0.70 dB   -15.04 dB      7:14 04-Prelude: Happiness/I'm So Glad
DR11      -0.70 dB   -14.32 dB      6:03 05-Mandrake Root
DR13      -0.70 dB   -17.40 dB      5:55 06-Help
DR12      -0.70 dB   -14.68 dB      3:45 07-Love Help Me
DR12      -0.93 dB   -15.38 dB      7:21 08-Hey Joe

Number of tracks:  8
Official DR value: DR11

Samplerate:        96000 Hz
Channels:          2
Bits per sample:   24
Bitrate:           2802 kbps
Codec:             FLAC



DETALE TORRENTA:[ Pokaż/Ukryj ]

Podobne pliki
Deep Purple - Deep Purple (1969) (UK PBTHAL LP 24-96) [FLAC]
Deep Purple - Deep Purple (1969) (UK PBTHAL LP 24-96) [FLAC]
DEEP PURPLE - HARD ROAD: THE MARK 1 STUDIO RECORDINGS 1968-69 (2014) [CD5-DEEP PURPLE] [MP3@320] [FALLEN ANGEL]
DEEP PURPLE - HARD ROAD: THE MARK 1 STUDIO RECORDINGS 1968-69 (2014) [CD5-DEEP PURPLE] [MP3@320] [FALLEN ANGEL]
DEEP PURPLE - HARD ROAD: THE MARK 1 STUDIO RECORDINGS 1968-69 (2014) [CD5-DEEP PURPLE] [WMA] [FALLEN ANGEL]
DEEP PURPLE - HARD ROAD: THE MARK 1 STUDIO RECORDINGS 1968-69 (2014) [CD5-DEEP PURPLE] [WMA] [FALLEN ANGEL]
Deep Purple - The Book Of Taliesyn (1968) (PBTHAL LP 24-96) [FLAC]
Deep Purple - The Book Of Taliesyn (1968) (PBTHAL LP 24-96) [FLAC]
Deep Purple - In Rock (1970) (UK PBTHAL LP 24-96) [FLAC]
Deep Purple - In Rock (1970) (UK PBTHAL LP 24-96) [FLAC]
Deep Purple - Burn (1974) (PBTHAL LP 24-96) [FLAC]
Deep Purple - Burn (1974) (PBTHAL LP 24-96) [FLAC]
Deep Purple - Fireball (1971) (PBTHAL LP 24-96) [FLAC]
Deep Purple - Fireball (1971) (PBTHAL LP 24-96) [FLAC]
Deep Purple - Whoosh! (2020) (PBTHAL LP 24-96) [FLAC]
Deep Purple - Whoosh! (2020) (PBTHAL LP 24-96) [FLAC]

Komentarze

Brak komentarzy

Zaloguj się aby skomentować