MENU

KATEGORIE

TOPLISTA

Torrent: Blondie - Parallel Lines (1978) (PBTHAL LP 24-96) [FLAC]
Blondie - Parallel Lines (1978) (PBTHAL LP 24-96) [FLAC]
Dodał: Beatrix
Data: 09-01-2021
Rozmiar: 795.79 MB
Seed: 1
Peer: 0
Pobierz torrent

  • *
Głosów: 0
Kategoria: MUZYKA -> ZAGRANICZNA
Zaakceptował: nie wymagał akceptacji
Liczba pobrań: 1
Liczba komentarzy: 0
Ostatnia aktualizacja: 0000-00-00 00:00:00
OPIS:
Blondie
Parallel Lines (1978)
FLAC LOSSLESS 24bit-96kHz
UK PBTHAL Vinyl Rip


allmusic.com...

Blondie turned to British pop producer Mike Chapman for their third album, on which they abandoned any pretensions to new wave legitimacy (just in time, given the decline of the new wave) and emerged as a pure pop band. But it wasn't just Chapman that made Parallel Lines Blondie's best album; it was the band's own songwriting, including Deborah Harry, Chris Stein, and James Destri's "Picture This," and Harry and Stein's "Heart of Glass," and Harry and new bass player Nigel Harrison's "One Way or Another," plus two contributions from nonbandmember Jack Lee, "Will Anything Happen?" and "Hanging on the Telephone." That was enough to give Blondie a number one on both sides of the Atlantic with "Heart of Glass" and three more U.K. hits, but what impresses is the album's depth and consistency -- album tracks like "Fade Away and Radiate" and "Just Go Away" are as impressive as the songs pulled for singles. The result is state-of-the-art pop/rock circa 1978, with Harry's tough-girl glamour setting the pattern that would be exploited over the next decade by a host of successors led by Madonna.


foobar2000 1.4.3 / Dynamic Range Meter 1.1.1
log date: 2021-01-08 10:05:49

--------------------------------------------------------------------------------
Analyzed: Blondie / Parallel Lines
--------------------------------------------------------------------------------

DR         Peak         RMS     Duration Track
--------------------------------------------------------------------------------
DR12      -2.11 dB   -16.11 dB      2:24 01-Hanging On The Telephone
DR13      -1.11 dB   -17.03 dB      3:36 02-One Way Or Another
DR12      -2.79 dB   -17.29 dB      2:57 03-Picture This
DR14      -3.11 dB   -21.62 dB      4:03 04-Fade Away And Radiate
DR13      -4.01 dB   -19.78 dB      3:24 05-Pretty Baby
DR14      -3.77 dB   -19.65 dB      3:56 06-I Know But I Don't Know
DR14      -1.53 dB   -17.85 dB      3:20 07-11:59
DR12      -2.57 dB   -17.24 dB      3:01 08-Will Anything Happen?
DR12      -1.58 dB   -16.42 dB      3:06 09-Sunday Girl
DR13      -2.33 dB   -18.10 dB      3:49 10-Heart Of Glass
DR13      -2.50 dB   -17.62 dB      2:11 11-I'm Gonna Love You Too
DR13      -2.09 dB   -18.90 dB      3:26 12-Just Go Away

Number of tracks:  12
Official DR value: DR13

Samplerate:        96000 Hz
Channels:          2
Bits per sample:   24
Bitrate:           2776 kbps
Codec:             FLAC
DETALE TORRENTA:[ Pokaż/Ukryj ]

Podobne pliki
Blondie-Parallel Lines-(30th Anniversary Deluxe Edition)[2008][mp3@207]
Blondie-Parallel Lines-(30th Anniversary Deluxe Edition)[2008][mp3@207]
Blondie - Parallel Lines (30th Anniversary Deluxe Edition 2008)
Blondie - Parallel Lines (30th Anniversary Deluxe Edition 2008)
Driver Parallel Lines [ENG]
Driver Parallel Lines [ENG]
Driver Parallel Lines *2007* [PL][POLISH REPACK GTX BOX Team][iso]
Driver Parallel Lines *2007* [PL][POLISH REPACK GTX BOX Team][iso]
Kraftwerk - The Man Machine (1978) (PBTHAL LP 24-96) [FLAC]
Kraftwerk - The Man Machine (1978) (PBTHAL LP 24-96) [FLAC]
Journey - Infinity (1978) (PBTHAL LP 24-96) [FLAC]
Journey - Infinity (1978) (PBTHAL LP 24-96) [FLAC]
Steely Dan - Greatest Hits (1978) (RL PBTHAL LP 24-96) [FLAC]
Steely Dan - Greatest Hits (1978) (RL PBTHAL LP 24-96) [FLAC]
Kate Bush - The Kick Inside (1978) (PBTHAL LP 24-96) [FLAC]
Kate Bush - The Kick Inside (1978) (PBTHAL LP 24-96) [FLAC]

Komentarze

Brak komentarzy

Zaloguj się aby skomentować