MENU

KATEGORIE

TOPLISTA

Torrent: David Bowie - Young Americans (1975) (PBTHAL LP 24-96) [FLAC]
David Bowie - Young Americans (1975) (PBTHAL LP 24-96) [FLAC]
Dodał: Beatrix
Data: 09-01-2021
Rozmiar: 826.00 MB
Seed: 1
Peer: 0
Pobierz torrent

  • *
Głosów: 0
Kategoria: MUZYKA -> ZAGRANICZNA
Zaakceptował: nie wymagał akceptacji
Liczba pobrań: 1
Liczba komentarzy: 0
Ostatnia aktualizacja: 0000-00-00 00:00:00
OPIS:
David Bowie
Young Americans (1975)
FLAC LOSSLESS 24bit-96kHz
UK PBTHAL Vinyl Rip


allmusic.com...

David Bowie had dropped hints during the Diamond Dogs tour that he was moving toward R&B, but the full-blown blue-eyed soul of Young Americans came as a shock. Surrounding himself with first-rate sessionmen, Bowie comes up with a set of songs that approximate the sound of Philly soul and disco, yet remain detached from their inspirations; even at his most passionate, Bowie sounds like a commentator, as if the entire album was a genre exercise. Nevertheless, the distance doesn't hurt the album -- it gives the record its own distinctive flavor, and its plastic, robotic soul helped inform generations of synthetic British soul. What does hurt the record is a lack of strong songwriting. "Young Americans" is a masterpiece, and "Fame" has a beat funky enough that James Brown ripped it off, but only a handful of cuts ("Win," "Fascination," "Somebody Up There Likes Me") comes close to matching their quality. As a result, Young Americans is more enjoyable as a stylistic adventure than as a substantive record.


foobar2000 1.4.3 / Dynamic Range Meter 1.1.1
log date: 2021-01-03 07:47:35

--------------------------------------------------------------------------------
Analyzed: David Bowie / Young Americans
--------------------------------------------------------------------------------

DR         Peak         RMS     Duration Track
--------------------------------------------------------------------------------
DR13      -0.70 dB   -16.90 dB      5:11 01-Young Americans
DR12      -2.52 dB   -17.42 dB      4:47 02-Win
DR13      -1.60 dB   -17.51 dB      5:45 03-Fascination
DR13      -3.04 dB   -18.57 dB      4:15 04-Right
DR12      -1.28 dB   -15.82 dB      6:33 05-Somebody Up There Likes Me
DR13      -0.70 dB   -16.28 dB      4:31 06-Across The Universe
DR12      -2.38 dB   -16.82 dB      5:05 07-Can You Hear Me
DR15      -2.66 dB   -20.30 dB      4:18 08-Fame

Number of tracks:  8
Official DR value: DR13

Samplerate:        96000 Hz
Channels:          2
Bits per sample:   24
Bitrate:           2686 kbps
Codec:             FLAC

DETALE TORRENTA:[ Pokaż/Ukryj ]

Podobne pliki
David Bowie - Heroes (1977) (PBTHAL LP 24-96) [FLAC]
David Bowie - Heroes (1977) (PBTHAL LP 24-96) [FLAC]
David Bowie - Let's Dance (1983) (PBTHAL LP 24-96) [FLAC]
David Bowie - Let's Dance (1983) (PBTHAL LP 24-96) [FLAC]
David Bowie - The Rise And Fall Of Ziggy Stardust (1972) (PBTHAL LP 24-96) [FLAC]
David Bowie - The Rise And Fall Of Ziggy Stardust (1972) (PBTHAL LP 24-96) [FLAC]
David Bowie - David Bowie the Early Years (2020) Mp3 320kbps
David Bowie - David Bowie the Early Years (2020) Mp3 320kbps
David Bowie - Acoustically High [FLAC]
David Bowie - Acoustically High [FLAC]
David Bowie - Cat From London 04-20-1973 [FLAC]
David Bowie - Cat From London 04-20-1973 [FLAC]
David Bowie - Hours... ([LOSSLESS FLAC] Pop + Cover)
David Bowie - Hours... ([LOSSLESS FLAC] Pop + Cover)
David Bowie Courting Disaster 12 May 1973 [FLAC]
David Bowie Courting Disaster 12 May 1973 [FLAC]

Komentarze

Brak komentarzy

Zaloguj się aby skomentować