MENU

KATEGORIE

TOPLISTA

Torrent: Coyote *2021* [S01] [1080p] [AMZN] [WEB-DL] [DDP5.1] [X264] [KOGi] [ENG]
Coyote *2021* [S01] [1080p] [AMZN] [WEB-DL] [DDP5.1] [X264] [KOGi] [ENG]
Dodał: umezrorv
Data: 09-01-2021
Rozmiar: 20.66 GB
Seed: 1
Peer: 0
Pobierz torrent

  • *
Głosów: 0
Kategoria: TV / SERIALE -> ZAGRANICZNE
Zaakceptował: nie wymagał akceptacji
Liczba pobrań: 11
Liczba komentarzy: 0
Ostatnia aktualizacja: 0000-00-00 00:00:00
OPIS:


..::(Info)::..

Produkcja: USA
Gatunek: Akcja,,Kryminał, Dramat
Twórca: Michael Carnes, Josh Gilbert
Platforma: Paramount
Premiera: 7 styczeń 2021

..::(Opis)::..

Historia Bena Clemensa, który po 32 latach pracy jako agent patrolu granicznego jest zmuszony pracować dla ludzi, których przez całą swoją karierę zawodową starał się trzymać z dala od Ameryki. Teraz żyjąc po meksykańskiej stronie granicy, Ben zaczyna kwestionować swoje poglądy na świat oraz dotychczasowa ideologię.

..::(Obsada)::..

Michael Chiklis ... Ben Clemens
George Pullar ... Garrett Cox
Adriana Paz ... Silvia Peña
Natalia Cordova-Buckley ... Paloma Zamora
Michele Nordin ... Valerie Lopez
Octavio Pisano ... Sułtan

..::(Dane Techniczne)::..

Video
ID : 1
Format : AVC
Format/INFO : Advanced Video Codec
Format profile : High@L4
Format settings : CABAC / 4 Ref Frames
Format settings, CABAC : Yes
Format settings, Reference frames : 4 frames
Codec ID : V_MPEG4/ISO/AVC
Duration : 56 min 16 s
Bit rate : 9 986 kb/s
Width : 1 920 pixels
Height : 1 080 pixels
Display aspect ratio : 16:9
Frame rate mode : Constant
Frame rate : 24.000 FPS
Color space : YUV
Chroma subsampling : 4:2:0
Bit depth : 8 bits
Scan type : Progressive
Bits/(Pixel*Frame) : 0.201
Stream size : 3.93 GiB (94%)
Language : English
Default : Yes
Forced : No
Color range : Limited
Color primaries : BT.709
Transfer characteristics : BT.709
Matrix coefficients : BT.709

Audio
ID : 2
Format : E-AC-3
Format/INFO : Enhanced AC-3
Commercial name : Dolby Digital Plus
Codec ID : A_EAC3
Duration : 56 min 16 s
Bit rate mode : Constant
Bit rate : 640 kb/s
Channel(s) : 6 channels
Channel layout : L R C LFE Ls Rs
Sampling rate : 48.0 kHz
Frame rate : 31.250 FPS (1536 SPF)
Compression mode : Lossy
Stream size : 258 MiB (6%)
Language : English
Service kind : Complete Main
Default : Yes
Forced : No

Text
ID : 3
Format : UTF-8
Codec ID : S_TEXT/UTF8
Codec ID/INFO : UTF-8 Plain Text
Duration : 54 min 49 s
Bit rate : 39 b/s
Count of elements : 686
Stream size : 15.9 KiB (0%)
Title : English (SDH)
Language : English
Default : No
Forced : No
DETALE TORRENTA:[ Pokaż/Ukryj ]

Podobne pliki
Amerykańscy Bogowie - American Gods *2021* [S03E02] [1080p] [AMZN] [WEB-DL] [DDP5.1] [X264] [NTb] [Napisy PL]
Amerykańscy Bogowie - American Gods *2021* [S03E02] [1080p] [AMZN] [WEB-DL] [DDP5.1] [X264] [NTb] [Napisy PL]
Amerykańscy Bogowie - American Gods *2021* [S03E01] [1080p] [AMZN] [WEB-DL] [DDP5.1] [X264] [NTb] [Napisy PL]
Amerykańscy Bogowie - American Gods *2021* [S03E01] [1080p] [AMZN] [WEB-DL] [DDP5.1] [X264] [NTb] [Napisy PL]
El Cid *2020* [S01] [1080p] [AMZN] [WEB-DL] [DDP5.1] [X264] [Hdalx] [Napisy PL] [MULTi]
El Cid *2020* [S01] [1080p] [AMZN] [WEB-DL] [DDP5.1] [X264] [Hdalx] [Napisy PL] [MULTi]
The Grand Tour (S04E02)[1080p.AMZN.WEBRip.DDP5.1.x264] [ENG] [napisy PL]
The Grand Tour (S04E02)[1080p.AMZN.WEBRip.DDP5.1.x264] [ENG] [napisy PL]
Primal (Sezon 1) (2019) [1080p.AMZN.WEB-DL.DDP5.1.x264-CtrlHD] [BEZ DIALOGÓW]
Primal (Sezon 1) (2019) [1080p.AMZN.WEB-DL.DDP5.1.x264-CtrlHD] [BEZ DIALOGÓW]
Echo Boomers *2020* [1080p] [AMZN] [WEBRip] [DDP5.1.] [x264-NTG] [Napisy pl] [zibi6248]
Echo Boomers *2020* [1080p] [AMZN] [WEBRip] [DDP5.1.] [x264-NTG] [Napisy pl] [zibi6248]
Bastion - The Stand S01E04 (The House of the Dead) [1080p.AMZN.WEBRip.DDP5.1.x264-NTG] [ENG] [Sub.ENG]
Bastion - The Stand S01E04 (The House of the Dead) [1080p.AMZN.WEBRip.DDP5.1.x264-NTG] [ENG] [Sub.ENG]
Strefa skażenia - The Hot Zone *2019* [S01] [COMPLETE] [1080p.AMZN.WEBRip.DDP5.1.x264-NTG] [ENG] [Sub.ENG]
Strefa skażenia - The Hot Zone *2019* [S01] [COMPLETE] [1080p.AMZN.WEBRip.DDP5.1.x264-NTG] [ENG] [Sub.ENG]

Komentarze

Brak komentarzy

Zaloguj się aby skomentować