MENU

KATEGORIE

TOPLISTA

Torrent: Motorhead - Ace Of Spades (1980) (PBTHAL LP 24-96) [FLAC]
Motorhead - Ace Of Spades (1980) (PBTHAL LP 24-96) [FLAC]
Dodał: Beatrix
Data: 10-01-2021
Rozmiar: 853.30 MB
Seed: 1
Peer: 0
Pobierz torrent

  • *
Głosów: 0
Kategoria: MUZYKA -> ZAGRANICZNA
Zaakceptował: nie wymagał akceptacji
Liczba pobrań: 0
Liczba komentarzy: 0
Ostatnia aktualizacja: 0000-00-00 00:00:00
OPIS:
Motörhead
Ace Of Spades (1980)
FLAC LOSSLESS 24bit-96kHz
UK PBTHAL Vinyl Rip


allmusic.com...

With the 1980 release of Ace of Spades, Motörhead had their anthem of anthems -- that is, the title track -- the one trademark song that would summarize everything that made this early incarnation of the band so legendary, a song that would be blasted by legions of metalheads for generations on end. It's a legendary song, for sure, all two minutes and 49 bracing seconds of it. And the album of the same name is legendary as well, among Motörhead's all-time best, often considered their single best, in fact, along with Overkill. Ace of Spades was Motörhead's third great album in a row, following the 1979 releases of Overkill and Bomber, respectively. Those two albums have a lot in common with Ace of Spaces. The classic lineup -- Lemmy (bass and vocals), "Fast" Eddie Clarke (guitar), and "Philthy Animal" Taylor (drums) -- is still in place and sounding as alive and crazed as ever. The album is still rock-solid, boasting several superlative standouts. Actually, besides the especially high number of standouts on Ace of Spades -- at least relative to Bomber, which wasn't quite as strong overall as Overkill had been -- the only key difference between this 1980 album and its two 1979 predecessors is the producer, in this case Vic Maile. The result of his work isn't all that different from that of Jimmy Miller, the longtime Rolling Stones producer who had worked on Overkill and Bomber, but it's enough to give Ace of Spades a feeling distinct from its two very similar-sounding predecessors. This singular sound (still loud and in your face, rest assured), along with the exceptionally strong songwriting and the legendary stature of the title track, makes Ace of Spades the ideal Motörhead album if one were to choose one and only one studio album. It's highly debatable whether Ace of Spades is tops over the breakthrough Overkill, as the latter is more landmark because of its earlier release, and is somewhat rougher around the edges, too. Either way, Ace of Spades rightly deserves its legacy as a classic. There's no debating that.


foobar2000 1.4.3 / Dynamic Range Meter 1.1.1
log date: 2021-01-09 22:35:37

--------------------------------------------------------------------------------
Analyzed: Motörhead / Ace Of Spades
--------------------------------------------------------------------------------

DR         Peak         RMS     Duration Track
--------------------------------------------------------------------------------
DR10      -1.71 dB   -13.64 dB      2:46 01-Ace Of Spades
DR11      -2.78 dB   -14.51 dB      3:21 02-Love Me Like A Reptile
DR10      -2.93 dB   -14.60 dB      2:39 03-Shoot You In The Back
DR10      -1.37 dB   -13.71 dB      3:35 04-Live To Win
DR11      -1.57 dB   -14.51 dB      3:23 05-Fast And Loose
DR11      -1.74 dB   -15.07 dB      3:10 06-(We Are) The Road Crew
DR11      -0.70 dB   -13.96 dB      2:41 07-Fire, Fire
DR11      -2.50 dB   -14.56 dB      3:31 08-Jailbait
DR11      -2.39 dB   -14.43 dB      2:37 09-Dance
DR11      -2.48 dB   -14.40 dB      1:38 10-Bite The Bullet
DR11      -1.88 dB   -14.22 dB      4:14 11-The Chase Is Better Than The Catch
DR11      -2.41 dB   -14.84 dB      2:46 12-The Hammer

Number of tracks:  12
Official DR value: DR11

Samplerate:        96000 Hz
Channels:          2
Bits per sample:   24
Bitrate:           3283 kbps
Codec:             FLAC

DETALE TORRENTA:[ Pokaż/Ukryj ]

Podobne pliki
Motorhead - Ace Of Spades (1980) [MP3@320]
Motorhead - Ace Of Spades (1980) [MP3@320]
Motörhead - Ace Of Spades (1980) [mp3@320kbps]
Motörhead - Ace Of Spades (1980) [mp3@320kbps]
MöTORHEAD - ACE OF SPADES (40TH ANNIVERSARY DELUXE EDITION) (2020) [FLAC] [FALLEN ANGEL]
MöTORHEAD - ACE OF SPADES (40TH ANNIVERSARY DELUXE EDITION) (2020) [FLAC] [FALLEN ANGEL]
Motorhead - Overkill (1979) (PBTHAL LP 24-96) [FLAC]
Motorhead - Overkill (1979) (PBTHAL LP 24-96) [FLAC]
Motorhead - No Sleep 'Til Hammersmith (1981) (PBTHAL LP 24-96) [FLAC]
Motorhead - No Sleep 'Til Hammersmith (1981) (PBTHAL LP 24-96) [FLAC]
Motorhead - Aces Of Spades (2008) [mp3@192kbps]
Motorhead - Aces Of Spades  (2008) [mp3@192kbps]
Motörhead - Ace of Spades (40th Anniversary Edition) (Deluxe) (2020) Mp3 320kbps
Motörhead - Ace of Spades (40th Anniversary Edition) (Deluxe) (2020) Mp3 320kbps
U2 - Boy (1980) (UK PBTHAL LP 24-96) [FLAC]
U2 - Boy (1980) (UK PBTHAL LP 24-96) [FLAC]

Komentarze

Brak komentarzy

Zaloguj się aby skomentować