MENU

KATEGORIE

TOPLISTA

Torrent: Marvel Studios: Legends [S01E02] [720p] [DSNP] [WEB] [H264] [Mixed] [Napisy PL] [Multi]
Marvel Studios: Legends [S01E02] [720p] [DSNP] [WEB] [H264] [Mixed] [Napisy PL] [Multi]
Dodał: umezrorv
Data: 11-01-2021
Rozmiar: 212.14 MB
Seed: 1
Peer: 0
Pobierz torrent

  • *
Głosów: 0
Kategoria: TV / SERIALE -> ZAGRANICZNE
Zaakceptował: nie wymagał akceptacji
Liczba pobrań: 7
Liczba komentarzy: 0
Ostatnia aktualizacja: 0000-00-00 00:00:00
OPIS:


..::(Info)::..

Produkcja: USA
Gatunek: Dokument, Clip show, Opowieści o superbohaterach
Twórcy: Kevin Feige
Platforma: Disnay +
Premiera: 8 stycznia 2021

..::(Opis)::..

Ta seria przedstawia poszczególne postacie z MCU, które widzowie poznali i pokochali przez lata, a także powrócą do niektórych z ich najbardziej kultowych momentów.

Marvel Studios: Legends to zupełnie nowy program rozrywkowy, który zaprasza widza w wyjątkową podróż po ścieżce wspomnień. Ponownie przeżyj niektóre z najbardziej kultowych momentów w Marvel Cinematic Universe, przedstawiając poszczególne postacie, które pojawiły się w całej Sadze Infinity.

..::(Dane Techniczne)::..

Video
ID : 1
Format : AVC
Format/INFO : Advanced Video Codec
Format profile : High@L3.1
Format settings : CABAC / 4 Ref Frames
Format settings, CABAC : Yes
Format settings, Reference frames : 4 frames
Codec ID : V_MPEG4/ISO/AVC
Duration : 6 min 51 s
Bit rate mode : Variable
Bit rate : 4 061 kb/s
Maximum bit rate : 6 375 kb/s
Width : 1 280 pixels
Height : 720 pixels
Display aspect ratio : 16:9
Frame rate mode : Constant
Frame rate : 23.976 (24000/1001) FPS
Color space : YUV
Chroma subsampling : 4:2:0
Bit depth : 8 bits
Scan type : Progressive
Bits/(Pixel*Frame) : 0.184
Stream size : 199 MiB (94%)
Writing library : AVC Coding
Default : Yes
Forced : No
Color range : Limited
Color primaries : BT.709
Transfer characteristics : BT.709
Matrix coefficients : BT.709

Audio
ID : 2
Format : E-AC-3
Format/INFO : Enhanced AC-3
Commercial name : Dolby Digital Plus
Codec ID : A_EAC3
Duration : 6 min 51 s
Bit rate mode : Constant
Bit rate : 256 kb/s
Channel(s) : 6 channels
Channel layout : L R C LFE Ls Rs
Sampling rate : 48.0 kHz
Frame rate : 31.250 FPS (1536 SPF)
Compression mode : Lossy
Stream size : 12.6 MiB (6%)
Language : English
Service kind : Complete Main
Default : Yes
Forced : No

Text #1
ID : 3
Format : UTF-8
Codec ID : S_TEXT/UTF8
Codec ID/INFO : UTF-8 Plain Text
Duration : 6 min 34 s
Bit rate : 70 b/s
Count of elements : 104
Stream size : 3.41 KiB (0%)
Language : English
Default : No
Forced : No

Text #2
ID : 4
Format : UTF-8
Codec ID : S_TEXT/UTF8
Codec ID/INFO : UTF-8 Plain Text
Duration : 6 min 47 s
Bit rate : 64 b/s
Count of elements : 81
Stream size : 3.19 KiB (0%)
Language : Danish
Default : No
Forced : No

Text #3
ID : 5
Format : UTF-8
Codec ID : S_TEXT/UTF8
Codec ID/INFO : UTF-8 Plain Text
Duration : 6 min 47 s
Bit rate : 61 b/s
Count of elements : 101
Stream size : 3.05 KiB (0%)
Language : German
Default : No
Forced : No

Text #4
ID : 6
Format : UTF-8
Codec ID : S_TEXT/UTF8
Codec ID/INFO : UTF-8 Plain Text
Duration : 6 min 47 s
Bit rate : 61 b/s
Count of elements : 109
Stream size : 3.04 KiB (0%)
Title : Latin American
Language : Spanish
Default : No
Forced : No

Text #5
ID : 7
Format : UTF-8
Codec ID : S_TEXT/UTF8
Codec ID/INFO : UTF-8 Plain Text
Duration : 6 min 47 s
Bit rate : 63 b/s
Count of elements : 110
Stream size : 3.15 KiB (0%)
Title : European
Language : Spanish
Default : No
Forced : No

Text #6
ID : 8
Format : UTF-8
Codec ID : S_TEXT/UTF8
Codec ID/INFO : UTF-8 Plain Text
Duration : 6 min 47 s
Bit rate : 60 b/s
Count of elements : 108
Stream size : 3.01 KiB (0%)
Language : Finnish
Default : No
Forced : No

Text #7
ID : 9
Format : UTF-8
Codec ID : S_TEXT/UTF8
Codec ID/INFO : UTF-8 Plain Text
Duration : 6 min 47 s
Bit rate : 64 b/s
Count of elements : 100
Stream size : 3.22 KiB (0%)
Language : French
Default : No
Forced : No

Text #8
ID : 10
Format : UTF-8
Codec ID : S_TEXT/UTF8
Codec ID/INFO : UTF-8 Plain Text
Duration : 6 min 47 s
Bit rate : 60 b/s
Count of elements : 101
Stream size : 3.00 KiB (0%)
Language : French
Default : No
Forced : No

Text #9
ID : 11
Format : UTF-8
Codec ID : S_TEXT/UTF8
Codec ID/INFO : UTF-8 Plain Text
Duration : 6 min 47 s
Bit rate : 57 b/s
Count of elements : 109
Stream size : 2.87 KiB (0%)
Language : Italian
Default : No
Forced : No

Text #10
ID : 12
Format : UTF-8
Codec ID : S_TEXT/UTF8
Codec ID/INFO : UTF-8 Plain Text
Duration : 6 min 47 s
Bit rate : 65 b/s
Count of elements : 104
Stream size : 3.25 KiB (0%)
Language : Dutch
Default : No
Forced : No

Text #11
ID : 13
Format : UTF-8
Codec ID : S_TEXT/UTF8
Codec ID/INFO : UTF-8 Plain Text
Duration : 6 min 47 s
Bit rate : 61 b/s
Count of elements : 108
Stream size : 3.05 KiB (0%)
Language : Norwegian
Default : No
Forced : No

Text #12
ID : 14
Format : UTF-8
Codec ID : S_TEXT/UTF8
Codec ID/INFO : UTF-8 Plain Text
Duration : 6 min 47 s
Bit rate : 57 b/s
Count of elements : 109
Stream size : 2.87 KiB (0%)
Language : Polish
Default : No
Forced : No

Text #13
ID : 15
Format : UTF-8
Codec ID : S_TEXT/UTF8
Codec ID/INFO : UTF-8 Plain Text
Duration : 6 min 47 s
Bit rate : 60 b/s
Count of elements : 109
Stream size : 3.01 KiB (0%)
Title : Brazilian
Language : Portuguese
Default : No
Forced : No

Text #14
ID : 16
Format : UTF-8
Codec ID : S_TEXT/UTF8
Codec ID/INFO : UTF-8 Plain Text
Duration : 6 min 47 s
Bit rate : 62 b/s
Count of elements : 110
Stream size : 3.10 KiB (0%)
Title : European
Language : Portuguese
Default : No
Forced : No

Text #15
ID : 17
Format : UTF-8
Codec ID : S_TEXT/UTF8
Codec ID/INFO : UTF-8 Plain Text
Duration : 6 min 47 s
Bit rate : 64 b/s
Count of elements : 86
Stream size : 3.19 KiB (0%)
Language : Swedish
Default : No
Forced : No
DETALE TORRENTA:[ Pokaż/Ukryj ]

Podobne pliki
Marvel Studios: Legends [S01E01] [720p] [DSNP] [WEB] [H264] [Mixed] [Napisy PL] [Multi]
Marvel Studios: Legends [S01E01] [720p] [DSNP] [WEB] [H264] [Mixed] [Napisy PL] [Multi]
The Mandalorian [S02E05] [720p] [DSNP] [WEB] [H264] [Mixed] [Napisy PL] [Multi]
The Mandalorian [S02E05] [720p] [DSNP] [WEB] [H264] [Mixed] [Napisy PL] [Multi]
The Mandalorian [S02E06] [720p] [DSNP] [WEB] [H264] [Mixed] [Napisy PL] [Multi]
The Mandalorian [S02E06] [720p] [DSNP] [WEB] [H264] [Mixed] [Napisy PL] [Multi]
The Mandalorian [S02E07] [720p] [DSNP] [WEB] [H264] [Mixed] [Napisy PL] [Multi]
The Mandalorian [S02E07] [720p] [DSNP] [WEB] [H264] [Mixed] [Napisy PL] [Multi]
The Mandalorian [S02E08] [Finał] [720p] [DSNP] [WEB] [H264] [Mixed] [Napisy PL] [Multi]
The Mandalorian [S02E08] [Finał] [720p] [DSNP] [WEB] [H264] [Mixed] [Napisy PL] [Multi]
The Mandalorian [S02E03] [1080p] [DSNP] [WEB] [H264] [Mixed] [Napisy PL] [Multi]
The Mandalorian [S02E03] [1080p] [DSNP] [WEB] [H264] [Mixed] [Napisy PL] [Multi]
The Right Stuff *2020* [S01E06] [720p] [DSNP] [WEB-DL] [DD5.1] [X264] [Mixed] [Napisy PL] [MULTi]
The Right Stuff *2020* [S01E06] [720p] [DSNP] [WEB-DL] [DD5.1] [X264] [Mixed] [Napisy PL] [MULTi]
The Right Stuff *2020* [S01E05] [720p] [DSNP] [WEB-DL] [DD5.1] [X264] [Mixed] [Napisy PL] [MULTi]
The Right Stuff *2020* [S01E05] [720p] [DSNP] [WEB-DL] [DD5.1] [X264] [Mixed] [Napisy PL] [MULTi]

Komentarze

Brak komentarzy

Zaloguj się aby skomentować