MENU

KATEGORIE

TOPLISTA

Torrent: Dixie Chicks - Wide Open Spaces (1998) (PBTHAL LP 24-96) [FLAC]
Dixie Chicks - Wide Open Spaces (1998) (PBTHAL LP 24-96) [FLAC]
Dodał: Beatrix
Data: 12-01-2021
Rozmiar: 957.42 MB
Seed: 1
Peer: 0
Pobierz torrent

  • *
Głosów: 0
Kategoria: MUZYKA -> ZAGRANICZNA
Zaakceptował: nie wymagał akceptacji
Liczba pobrań: 1
Liczba komentarzy: 0
Ostatnia aktualizacja: 0000-00-00 00:00:00
OPIS:
Dixie Chicks
Wide Open Spaces (1998)
FLAC LOSSLESS 24bit-96kHz
PBTHAL Vinyl Rip


allmusic.com...

The Chicks spent the first half of the '90s toiling away on the independent bluegrass circuit, releasing three albums on small labels, before sisters Martie Seidel and Emily Robison decided to revamp their sound in 1995, adding Natalie Maines as their lead singer and, in the process, moving the group away from bluegrass and toward a major label with Sony/Columbia's revived Monument Records imprint. All of this seems like the blueprint for a big pop crossover move and, to be sure, their 1998 major-label debut Wide Open Spaces was a monumental success, selling over ten million copies and turning the group into superstars, but the remarkable thing about the album is that it's most decidedly not a sell-out, or even a consciously country-pop record. To be sure, there are pop melodies here, but this isn't a country-pop album in the vein of Shania Twain, a record that's big on style and glitz, designed for a mass audience.


foobar2000 1.4.3 / Dynamic Range Meter 1.1.1
log date: 2021-01-11 16:17:47

--------------------------------------------------------------------------------
Analyzed: Dixie Chicks / Wide Open Spaces
--------------------------------------------------------------------------------

DR         Peak         RMS     Duration Track
--------------------------------------------------------------------------------
DR11      -1.20 dB   -14.23 dB      3:53 01-I Can Love You Better
DR11      -1.86 dB   -15.86 dB      3:44 02-Wide Open Spaces
DR11      -2.01 dB   -16.70 dB      3:38 03-Loving Arms
DR11      -1.80 dB   -14.49 dB      3:12 04-There's Your Trouble
DR12      -0.70 dB   -15.80 dB      3:38 05-You Were Mine
DR11      -2.07 dB   -15.52 dB      3:57 06-Never Say Die
DR11      -1.72 dB   -13.93 dB      3:28 07-Tonight The Heartache's On Me
DR11      -1.15 dB   -14.40 dB      2:50 08-Let 'Er Rip
DR10      -1.45 dB   -14.67 dB      3:30 09-Once You've Loved Somebody
DR10      -2.19 dB   -16.40 dB      3:40 10-I'll Take Care Of You
DR11      -1.36 dB   -14.33 dB      3:25 11-Am I The Only One (Who's Ever Felt This Way)
DR11      -1.68 dB   -14.36 dB      4:57 12-Give It Up Or Let Me Go

Number of tracks:  12
Official DR value: DR11

Samplerate:        96000 Hz
Channels:          2
Bits per sample:   24
Bitrate:           3192 kbps
Codec:             FLAC

DETALE TORRENTA:[ Pokaż/Ukryj ]

Podobne pliki
Dixie Chicks - Fly (1999) [mp3@320]
Dixie Chicks - Fly (1999) [mp3@320]
Dixie Chicks - Sin Wagon
Dixie Chicks - Sin Wagon
Ass Wide Open
Ass Wide Open
Thighs Wide Open
Thighs Wide Open
Rachel Milan - Open Wide
Rachel Milan - Open Wide
Private Gold - Legs Wide Open
Private Gold - Legs Wide Open
Jason Aldean - Wide Open (2009) [mp3@VBR]
Jason Aldean - Wide Open (2009) [mp3@VBR]
Love & Theft - World Wide Open
Love & Theft - World Wide Open

Komentarze

Brak komentarzy

Zaloguj się aby skomentować