MENU

KATEGORIE

TOPLISTA

Torrent: Bob Dylan - Time Out Of Mind (1997) (PBTHAL LP 24-96) [FLAC]
Bob Dylan - Time Out Of Mind (1997) (PBTHAL LP 24-96) [FLAC]
Dodał: Beatrix
Data: 12-01-2021
Rozmiar: 1.42 GB
Seed: 1
Peer: 0
Pobierz torrent

  • *
Głosów: 0
Kategoria: MUZYKA -> ZAGRANICZNA
Zaakceptował: nie wymagał akceptacji
Liczba pobrań: 0
Liczba komentarzy: 0
Ostatnia aktualizacja: 0000-00-00 00:00:00
OPIS:
Bob Dylan
Time Out Of Mind (1997)
FLAC LOSSLESS 24bit-96kHz
PBTHAL Vinyl Rip


allmusic.com...

After spending much of the '90s touring and simply not writing songs, Bob Dylan returned in 1997 with Time Out of Mind, his first collection of new material in seven years. Where Under the Red Sky, his last collection of original compositions, had a casual, tossed-off feel, Time Out of Mind is carefully considered, from the densely detailed songs to the dark, atmospheric production. Sonically, the album is reminiscent of Oh Mercy, the last album Dylan recorded with producer Daniel Lanois, but Time Out of Mind has a grittier foundation -- by and large, the songs are bitter and resigned, and Dylan gives them appropriately anguished performances. Lanois bathes them in hazy, ominous sounds, which may suit the spirit of the lyrics, but are often in opposition to Dylan's performances. Consequently, the album loses a little of its emotional impact, yet the songs themselves are uniformly powerful, adding up to Dylan's best overall collection in years. It's a better, more affecting record than Oh Mercy, not only because the songs have a stronger emotional pull, but because Lanois hasn't sanded away all the grit. As a result, the songs retain their power, leaving Time Out of Mind as one of the rare latter-day Dylan albums that meets his high standards.


foobar2000 1.4.3 / Dynamic Range Meter 1.1.1
log date: 2021-01-11 21:15:43

--------------------------------------------------------------------------------
Analyzed: Bob Dylan / Time Out Of Mind
--------------------------------------------------------------------------------

DR         Peak         RMS     Duration Track
--------------------------------------------------------------------------------
DR12      -0.70 dB   -15.84 dB      5:21 01-Love Sick
DR11      -2.06 dB   -14.74 dB      3:35 02-Dirt Road Blues
DR12      -1.25 dB   -15.90 dB      7:41 03-Standing In The Doorway
DR13      -1.48 dB   -16.45 dB      5:52 04-Million Miles
DR13      -0.80 dB   -15.49 dB      5:20 05-Tryin' To Get To Heaven
DR13      -0.70 dB   -15.27 dB      5:16 06-'Til I Fell In Love With You
DR12      -0.87 dB   -15.75 dB      6:27 07-Not Dark Yet
DR11      -2.21 dB   -14.53 dB      7:14 08-Cold Irons Bound
DR11      -2.31 dB   -15.93 dB      3:32 09-Make You Feel My Love
DR13      -0.70 dB   -16.03 dB      5:46 10-Can't Wait
DR14      -1.09 dB   -17.27 dB     16:27 11-Highlands

Number of tracks:  11
Official DR value: DR12

Samplerate:        96000 Hz
Channels:          2
Bits per sample:   24
Bitrate:           2788 kbps
Codec:             FLAC
DETALE TORRENTA:[ Pokaż/Ukryj ]

Podobne pliki
Bob Dylan - Another Side Of Bob Dylan (1964) (PBTHAL LP 24-96) [FLAC]
Bob Dylan - Another Side Of Bob Dylan (1964) (PBTHAL LP 24-96) [FLAC]
Bob Dylan - The Times They Are A-Changin' (1964) (PBTHAL LP 24-96) [FLAC]
Bob Dylan - The Times They Are A-Changin' (1964) (PBTHAL LP 24-96) [FLAC]
Iron Maiden - Piece Of Mind (1983) (PBTHAL Vinyl 24-96) [FLAC]
Iron Maiden - Piece Of Mind (1983) (PBTHAL Vinyl 24-96) [FLAC]
Soundgarden - A-Sides (1997) (PBTHAL LP 24-96) [FLAC]
Soundgarden - A-Sides (1997) (PBTHAL LP 24-96) [FLAC]
Elvis Presley - 24 Karat Hits! (1997) (PBTHAL LP 24-44) [FLAC]
Elvis Presley - 24 Karat Hits! (1997) (PBTHAL LP 24-44) [FLAC]
Barry White All-Time Greatest Hits*1997* [FLAC]
Barry White All-Time Greatest Hits*1997* [FLAC]
Artist/Band: Alison Moyet Album/Song: Singles Year: 1995 Country: UK Genre: Pop Quality: FLAC 01 The First Time Ever I Saw Your Face.flac 02 Only You.flac 03 Nobody's Diary.flac 04 Situation.flac 05 Love Resurrection.flac 06 All Cried Out
  Artist/Band:   Alison Moyet Album/Song:   Singles Year:   1995 Country:   UK Genre:   Pop Quality:   FLAC    01 The First Time Ever I Saw Your Face.flac 02 Only You.flac 03 Nobody's Diary.flac 04 Situation.flac 05 Love Resurrection.flac 06 All Cried Out
Bob Dylan - Dylan Sings Dylan (2021) Mp3 320kbps
Bob Dylan - Dylan Sings Dylan (2021) Mp3 320kbps

Komentarze

Brak komentarzy

Zaloguj się aby skomentować