MENU

KATEGORIE

TOPLISTA

Torrent: WandaVision S01E07 [1080p.DSNP.WEBRip.DDP5.1.x264-TOMMY] [ENG] [MULTi.Sub: ENG]
WandaVision S01E07 [1080p.DSNP.WEBRip.DDP5.1.x264-TOMMY] [ENG] [MULTi.Sub: ENG]
Dodał: umezrorv
Data: 22-02-2021
Rozmiar: 1.93 GB
Seed: 1
Peer: 0
Pobierz torrent

  • *
Głosów: 0
Kategoria: TV / SERIALE -> ZAGRANICZNE
Zaakceptował: nie wymagał akceptacji
Liczba pobrań: 2
Liczba komentarzy: 0
Ostatnia aktualizacja: 0000-00-00 00:00:00
OPIS:
[INFO]
https://www.imdb.com/title/tt9140560/
https://www.filmweb.pl/serial/WandaVision-2021-833643
Studio: Marvel Studios
Sieć: Disney+
Produkcja: USA
Reżyser: Matt Shakman
Twórca programu: Jac Schaeffer, Roy Thomas
Gatunki: Sitcom, Romans, Dramat filmowy, mystery film, Opowieści o superbohaterach



[DESCRIPTION]
Po wydarzeniach z Avengers: Koniec gry, Wanda Maximoff i Vision prowadzą idealne życie na przedmieściach w miasteczku Westview, ale po pewnym czasie odkrywają, że rzeczy nie są takie, na jakie wyglądają.

[STAFF]


   Elizabeth Olsen jako Wanda Maximoff / Scarlett Witch, potrafi posługiwać się magią, posiada też umiejętności hipnozy i telekinezy. Pochodzi z Sokovii, kraju położonego we wschodniej Europie.
   Paul Bettany jako Vision, android, który powstał przy użyciu sztucznej inteligencji J.A.R.V.I.S.-a i Kamienia Umysłu.
   Debra Jo Rupp jako pani Heart, sąsiadka Wandy i Visiona oraz żona szefa Visiona.
   Fred Melamed jako Arthur Heart, szef Visiona.
   Kathryn Hahn jako Agnes, sąsiadka Wandy i Visiona.
   Teyonah Parris jako Monica Rambeau, córka Marii Rambeau.
   Kat Dennings jako Darcy Lewis, politolog i asystentka Jane Foster.
   Randall Park jako Jimmy Woo, agent FBI

[IMG_VIDEO]




[TECHNICAL_DATA]
MediaINFO «
Video
ID : 1
Format : AVC
Format/INFO : Advanced Video Codec
Format profile : High@L4
Format settings : CABAC / 4 Ref Frames
Format settings, CABAC : Yes
Format settings, Reference frames : 4 frames
Codec ID : V_MPEG4/ISO/AVC
Duration : 34 min 41 s
Bit rate mode : Variable
Bit rate : 7 200 kb/s
Maximum bit rate : 12.7 Mb/s
Width : 1 920 pixels
Height : 1 080 pixels
Display aspect ratio : 16:9
Frame rate mode : Constant
Frame rate : 23.976 (24000/1001) FPS
Color space : YUV
Chroma subsampling : 4:2:0
Bit depth : 8 bits
Scan type : Progressive
Bits/(Pixel*Frame) : 0.145
Stream size : 1.74 GiB (90%)
Default : Yes
Forced : No
Color range : Limited
Color primaries : BT.709
Transfer characteristics : BT.709
Matrix coefficients : BT.709

Audio
ID : 2
Format : E-AC-3 JOC
Format/INFO : Enhanced AC-3 with Joint Object Coding
Commercial name : Dolby Digital Plus with Dolby Atmos
Codec ID : A_EAC3
Duration : 34 min 41 s
Bit rate mode : Constant
Bit rate : 768 kb/s
Channel(s) : 6 channels
Channel layout : L R C LFE Ls Rs
Sampling rate : 48.0 kHz
Frame rate : 31.250 FPS (1536 SPF)
Compression mode : Lossy
Stream size : 191 MiB (10%)
Title : English
Language : English
Service kind : Complete Main
Default : Yes
Forced : No
Complexity index : 16
Number of dynamic objects : 15
Bed channel count : 1 channel
Bed channel configuration : LFE

Text #1
ID : 3
Format : UTF-8
Codec ID : S_TEXT/UTF8
Codec ID/INFO : UTF-8 Plain Text
Duration : 34 min 38 s
Bit rate : 38 b/s
Count of elements : 264
Stream size : 9.74 KiB (0%)
Title : Dansk
Language : Danish
Default : No
Forced : No

Text #2
ID : 4
Format : UTF-8
Codec ID : S_TEXT/UTF8
Codec ID/INFO : UTF-8 Plain Text
Duration : 34 min 38 s
Bit rate : 39 b/s
Count of elements : 330
Stream size : 10.0 KiB (0%)
Title : Deutsch
Language : German
Default : No
Forced : No

Text #3
ID : 5
Format : UTF-8
Codec ID : S_TEXT/UTF8
Codec ID/INFO : UTF-8 Plain Text
Duration : 32 min 10 s
Bit rate : 57 b/s
Count of elements : 460
Stream size : 13.6 KiB (0%)
Title : English (SDH)
Language : English
Default : No
Forced : No

Text #4
ID : 6
Format : UTF-8
Codec ID : S_TEXT/UTF8
Codec ID/INFO : UTF-8 Plain Text
Duration : 34 min 38 s
Bit rate : 45 b/s
Count of elements : 372
Stream size : 11.6 KiB (0%)
Title : Español
Language : Spanish
Default : No
Forced : No

Text #5
ID : 7
Format : UTF-8
Codec ID : S_TEXT/UTF8
Codec ID/INFO : UTF-8 Plain Text
Duration : 34 min 38 s
Bit rate : 45 b/s
Count of elements : 372
Stream size : 11.5 KiB (0%)
Title : Español (Latinoamericano)
Language : Spanish
Default : No
Forced : No

Text #6
ID : 8
Format : UTF-8
Codec ID : S_TEXT/UTF8
Codec ID/INFO : UTF-8 Plain Text
Duration : 34 min 38 s
Bit rate : 38 b/s
Count of elements : 360
Stream size : 9.68 KiB (0%)
Title : Français
Language : French
Default : No
Forced : No

Text #7
ID : 9
Format : UTF-8
Codec ID : S_TEXT/UTF8
Codec ID/INFO : UTF-8 Plain Text
Duration : 32 min 8 s
Bit rate : 41 b/s
Count of elements : 364
Stream size : 9.68 KiB (0%)
Title : Français (Canadien)
Language : French
Default : No
Forced : No

Text #8
ID : 10
Format : UTF-8
Codec ID : S_TEXT/UTF8
Codec ID/INFO : UTF-8 Plain Text
Duration : 34 min 38 s
Bit rate : 43 b/s
Count of elements : 370
Stream size : 10.9 KiB (0%)
Title : Italiano
Language : Italian
Default : No
Forced : No

Text #9
ID : 11
Format : UTF-8
Codec ID : S_TEXT/UTF8
Codec ID/INFO : UTF-8 Plain Text
Duration : 34 min 38 s
Bit rate : 41 b/s
Count of elements : 290
Stream size : 10.4 KiB (0%)
Title : Nederlands
Language : Dutch
Default : No
Forced : No

Text #10
ID : 12
Format : UTF-8
Codec ID : S_TEXT/UTF8
Codec ID/INFO : UTF-8 Plain Text
Duration : 34 min 38 s
Bit rate : 38 b/s
Count of elements : 372
Stream size : 9.80 KiB (0%)
Title : Norsk
Language : Norwegian
Default : No
Forced : No

Text #11
ID : 13
Format : UTF-8
Codec ID : S_TEXT/UTF8
Codec ID/INFO : UTF-8 Plain Text
Duration : 34 min 38 s
Bit rate : 43 b/s
Count of elements : 359
Stream size : 11.1 KiB (0%)
Title : Português
Language : Portuguese
Default : No
Forced : No

Text #12
ID : 14
Format : UTF-8
Codec ID : S_TEXT/UTF8
Codec ID/INFO : UTF-8 Plain Text
Duration : 34 min 38 s
Bit rate : 45 b/s
Count of elements : 367
Stream size : 11.6 KiB (0%)
Title : Português (Brasil)
Language : Portuguese
Default : No
Forced : No

Text #13
ID : 15
Format : UTF-8
Codec ID : S_TEXT/UTF8
Codec ID/INFO : UTF-8 Plain Text
Duration : 34 min 38 s
Bit rate : 39 b/s
Count of elements : 366
Stream size : 9.91 KiB (0%)
Title : Suomi
Language : Finnish
Default : No
Forced : No

Text #14
ID : 16
Format : UTF-8
Codec ID : S_TEXT/UTF8
Codec ID/INFO : UTF-8 Plain Text
Duration : 34 min 38 s
Bit rate : 40 b/s
Count of elements : 311
Stream size : 10.3 KiB (0%)
Title : Svenska
Language : Swedish
Default : No
Forced : No
DETALE TORRENTA:[ Pokaż/Ukryj ]

Podobne pliki
WandaVision S01E01 [1080p.DSNP.WEBRip.DDP5.1.Atmos.x264-CM] [ENG] [MULTi.Sub: ENG]
WandaVision S01E01 [1080p.DSNP.WEBRip.DDP5.1.Atmos.x264-CM] [ENG] [MULTi.Sub: ENG]
WandaVision S01E02 [1080p.DSNP.WEBRip.DDP5.1.Atmos.x264-CM] [ENG] [MULTi.Sub: ENG]
WandaVision S01E02 [1080p.DSNP.WEBRip.DDP5.1.Atmos.x264-CM] [ENG] [MULTi.Sub: ENG]
WandaVision S01E03 [1080p.DSNP.WEBRip.DDP5.1.Atmos.x264-CM] [ENG] [MULTi.Sub: ENG]
WandaVision S01E03 [1080p.DSNP.WEBRip.DDP5.1.Atmos.x264-CM] [ENG] [MULTi.Sub: ENG]
Chrzestna - Godmothered *2020* [MULTi.SUB.] [1080p] [DSNP] [WEBRip] [DDP5.1.Atmos] [x264-NOGRP] [Napisy PL] [zibi6248]
Chrzestna - Godmothered *2020* [MULTi.SUB.] [1080p] [DSNP] [WEBRip] [DDP5.1.Atmos] [x264-NOGRP] [Napisy PL] [zibi6248]
The Mandalorian [S02E07] [MULTi] [1080p] [DSNP] [WEB-DL] [DDP5.1] [H264-Ralf] [Dubbing PL & Napisy PL]
The Mandalorian [S02E07] [MULTi] [1080p] [DSNP] [WEB-DL] [DDP5.1] [H264-Ralf] [Dubbing PL & Napisy PL]
The Mandalorian [S02E01-E02] [MULTi] [1080p] [DSNP] [WEB-DL] [DDP5.1] [H264-Ralf] [Dubbing PL & Napisy PL]
The Mandalorian [S02E01-E02] [MULTi] [1080p] [DSNP] [WEB-DL] [DDP5.1] [H264-Ralf] [Dubbing PL & Napisy PL]
The Mandalorian [S02E03] [MULTi] [1080p] [DSNP] [WEB-DL] [DDP5.1] [H264-Ralf] [Dubbing PL & Napisy PL]
The Mandalorian [S02E03] [MULTi] [1080p] [DSNP] [WEB-DL] [DDP5.1] [H264-Ralf] [Dubbing PL & Napisy PL]
The Mandalorian [S02E04] [MULTi] [1080p] [DSNP] [WEB-DL] [DDP5.1] [H264-Ralf] [Dubbing PL & Napisy PL]
The Mandalorian [S02E04] [MULTi] [1080p] [DSNP] [WEB-DL] [DDP5.1] [H264-Ralf] [Dubbing PL & Napisy PL]

Komentarze

Brak komentarzy

Zaloguj się aby skomentować