MENU

KATEGORIE

TOPLISTA

Torrent: SEAL Team S04E07 (All in) [720p.AMZN.WEBRip.DDP5.1.x264-NTb] [ENG] [Sub.ENG]
SEAL Team S04E07 (All in) [720p.AMZN.WEBRip.DDP5.1.x264-NTb] [ENG] [Sub.ENG]
Dodał: umezrorv
Data: 22-02-2021
Rozmiar: 1.32 GB
Seed: 1
Peer: 0
Pobierz torrent

  • *
Głosów: 0
Kategoria: TV / SERIALE -> ZAGRANICZNE
Zaakceptował: nie wymagał akceptacji
Liczba pobrań: 0
Liczba komentarzy: 0
Ostatnia aktualizacja: 0000-00-00 00:00:00
OPIS:
[INFO]
Premiera sezonu 4: 02.12.2020r. USA; Stacja CBS
Gatunek: Dramat, Wojenny, Akcja
Muzyka: A. Patrick Rose, W.G. Snuffy Walden
Zdjęcia: James M. Muro, Gonzalo Amat
https://www.cbs.com/shows/seal-team/
https://www.filmweb.pl/serial/Seal+Team-2017-788553
https://www.imdb.com/title/tt6473344/

[DESCRIPTION]
SEAL Team skupia się na zawodowym i prywatnym życiu żołnierzy elitarnej jednostki Marynarki Wojennej Stanów Zjednoczonych. Serial opowiada o ich treningach, planowaniu i strategiach, a także wypełnianiu najbardziej niebezpiecznych misji.

[STAFF]


- David Boreanaz .... Jason Hayes
- Max Thieriot .... Clay Spenser
- Neil Brown Jr. .... Ray Perry
- Jessica Paré .... Mandy Ellis
- A.J. Buckley .... Sonny Quinn
- Toni Trucks .... Lisa Davis
- Judd Lormand .... Komandor porucznik Eric Blackburn
- Justin Melnick .... Brock

[IMG_VIDEO]


[TECHNICAL_DATA]
SEAL.Team.S04E07.All.In.720p.AMZN.WEBRip.DDP5.1.x264-NTb
MediaINFO «
Video
ID : 1
Format : AVC
Format/INFO : Advanced Video Codec
Format profile : High@L3.1
Format settings : CABAC / 4 Ref Frames
Format settings, CABAC : Yes
Format settings, Reference frames : 4 frames
Codec ID : V_MPEG4/ISO/AVC
Duration : 42 min 50 s
Bit rate mode : Constant
Bit rate : 3 760 kb/s
Nominal bit rate : 6 000 kb/s
Width : 1 280 pixels
Height : 720 pixels
Display aspect ratio : 16:9
Frame rate mode : Constant
Frame rate : 24.000 FPS
Color space : YUV
Chroma subsampling : 4:2:0
Bit depth : 8 bits
Scan type : Progressive
Bits/(Pixel*Frame) : 0.170
Stream size : 1.13 GiB (85%)
Default : Yes
Forced : No
Color range : Limited
Color primaries : BT.709
Transfer characteristics : BT.709
Matrix coefficients : BT.709

Audio
ID : 2
Format : E-AC-3
Format/INFO : Enhanced AC-3
Commercial name : Dolby Digital Plus
Codec ID : A_EAC3
Duration : 42 min 50 s
Bit rate mode : Constant
Bit rate : 640 kb/s
Channel(s) : 6 channels
Channel layout : L R C LFE Ls Rs
Sampling rate : 48.0 kHz
Frame rate : 31.250 FPS (1536 SPF)
Compression mode : Lossy
Stream size : 196 MiB (15%)
Language : English
Service kind : Complete Main
Default : Yes
Forced : No

Text #1
ID : 3
Format : UTF-8
Codec ID : S_TEXT/UTF8
Codec ID/INFO : UTF-8 Plain Text
Duration : 42 min 21 s
Bit rate : 86 b/s
Count of elements : 829
Stream size : 26.8 KiB (0%)
Language : English
Default : No
Forced : No

Text #2
ID : 4
Format : UTF-8
Codec ID : S_TEXT/UTF8
Codec ID/INFO : UTF-8 Plain Text
Duration : 42 min 21 s
Bit rate : 91 b/s
Count of elements : 883
Stream size : 28.5 KiB (0%)
Title : SDH
Language : English
Default : No
Forced : No
DETALE TORRENTA:[ Pokaż/Ukryj ]

Podobne pliki
SEAL Team S04E01E02 (God of War Forever War) [720p.AMZN.WEBRip.DDP5.1.x264-NTb] [ENG] [Sub: ENG]
SEAL Team S04E01E02 (God of War Forever War) [720p.AMZN.WEBRip.DDP5.1.x264-NTb] [ENG] [Sub: ENG]
SEAL Team S04E04 (Shockwave) [720p.AMZN.WEBRip.DDP5.1.x264-NTb] [ENG] [Sub.ENG]
SEAL Team S04E04 (Shockwave) [720p.AMZN.WEBRip.DDP5.1.x264-NTb] [ENG] [Sub.ENG]
SEAL Team S04E03 (The New Normal) [720p.AMZN.WEBRip.DDP5.1.x264-NTb] [ENG] [Sub.ENG]
SEAL Team S04E03 (The New Normal) [720p.AMZN.WEBRip.DDP5.1.x264-NTb] [ENG] [Sub.ENG]
SEAL Team S04E05 (The Carrot or the Stick) [720p.AMZN.WEBRip.DDP5.1.x264-NTb] [ENG] [Sub.ENG]
SEAL Team S04E05 (The Carrot or the Stick) [720p.AMZN.WEBRip.DDP5.1.x264-NTb] [ENG] [Sub.ENG]
SEAL Team S04E06 (Horror Has a Face) [720p.AMZN.WEBRip.DDP5.1.x264-NTb] [ENG] [Sub.ENG]
SEAL Team S04E06 (Horror Has a Face) [720p.AMZN.WEBRip.DDP5.1.x264-NTb] [ENG] [Sub.ENG]
SEAL Team (2017) [S04E07] [HDTV] [ACLC] [x264-PHOENiX] [ENG]
SEAL Team (2017) [S04E07] [HDTV] [ACLC] [x264-PHOENiX] [ENG]
Bastion - The Stand S01E01 (The End) [720p.AMZN.WEBRip.DDP5.1.x264-NTG] [ENG] [Sub.ENG]
Bastion - The Stand S01E01 (The End) [720p.AMZN.WEBRip.DDP5.1.x264-NTG] [ENG] [Sub.ENG]
Na poboczu - Roadkill S01E01 [720p.AMZN.WEBRip.DDP5.1.x264-NTb] [ENG]
Na poboczu - Roadkill S01E01 [720p.AMZN.WEBRip.DDP5.1.x264-NTb] [ENG]

Komentarze

Brak komentarzy

Zaloguj się aby skomentować