MENU

KATEGORIE

TOPLISTA

Torrent: Królowa ringu - Against the Ropes *2004* [DvdRip] [XviD-DjRobo38] [Napisy PL]
Królowa ringu - Against the Ropes *2004* [DvdRip] [XviD-DjRobo38] [Napisy PL]
Dodał: umezrorv
Data: 23-02-2021
Rozmiar: 760.36 MB
Seed: 1
Peer: 0
Pobierz torrent

  • *
Głosów: 0
Kategoria: INNE -> SPORT
Zaakceptował: nie wymagał akceptacji
Liczba pobrań: 0
Liczba komentarzy: 0
Ostatnia aktualizacja: 0000-00-00 00:00:00
OPIS:
Królowa ringu - Against the Ropes *2004* [DvdRip][XviD-DjRobo38][Napisy PL]..::(Screeny)::..

Tytuł oryginalny: Against the Ropes
Polski tytuł: Królowa ringu

NAPISY W ODDZIELNYM PLIKU !

===========================

reżyseria: Charles S. Dutton
scenariusz: Cheryl Edwards
muzyka:         Michael Kamen
gatunek: Komedia / Dramat obyczajowy / Sportowy
produkcja: Niemcy / USA
premiera: 20 lutego 2004 (świat)
oceny:          IMDb: 5,3/10 (6.791 głosy), FilmWeb: 6,2/10 (5.330 głosów)
czas trwania:   1 godz. 51 min.
boxoffice: $6 614 280

  OPIS
Jackie Kallen nie walczy o sławę, ona walczy o szacunek. W zainspirowanej prawdziwymi zdarzeniami Królowej ringu zobaczymy Meg Ryan w roli Kallen - bezczelnej i pyskatej promotorki bokserów, która postanowiła zmienić
"Zabójczego" Luthera Shawa (Omar Epps) z ulicznego rozrabiaki w pierwszorzędnego zawodnika. Aby to osiągnąć, Jackie ściąga z emerytury doświadczonego trenera Felixa Reynoldsa (Charles Dutton). Zanim uda im się spełnić sen o mistrzowskim tytule, będą musieli stoczyć niezłą walkę - między sobą. To nie jest film o tym, jak bardzo można upaść. To film o tym, ile trzeba wysiłku, aby sięgnąć po władzę jako "Królowa ringu".

  INFO o filmie:
https://www.filmweb.pl/film/Kr%C3%B3lowa+ringu-2004-35189
https://www.imdb.com/title/tt0312329/
  Trailer:
https://www.filmweb.pl/video/zwiastun/nr+1-12601

  OBSADA:
Meg Ryan - Jackie Kallen
Joe Cortese - Irving Abel
Skye McCole Bartusiak - Jackie Kallen we wczesnej młodości
Omar Epps - Luther Shaw
Tim Daly - Gaven Ross
Charles S. Dutton - Felix Reynolds
Merwin Mondesir - Street Crony
Kerry Washington - Renee
Holt McCallany - Doherty
Tony Shalhoub - Larocca
Beau Starr - Corcoran
Gene Mack - Kevin Keyes
Tory Kittles - Devon Green
Dean McDermott - Pete Kallen
Sean Bell - Ray Kallen
Reg Dreger - Lonnie
Tamara Hickey - Megan
DANE TECH:..::(Info)::..
  General:
     Format : AVI (Audio Video Interleave)
     File size : 700 MiB
     Duration : 1 h 46 min
     Overall bit rate mode : Variable
     Overall bit rate : 921 kb/s
     Writing application : VirtualDubMod 1.5.4.1 (build 2178/release)
     Writing library : VirtualDubMod build 2178/release
  Video #0
     Format : MPEG-4 Visual
     Format profile : Advanced Simple@L5
     Format settings : BVOP1 / Custom Matrix
     Format settings, BVOP : 1
     Format settings, QPel : No
     Format settings, GMC : No warppoints
     Format settings, Matrix : Custom
     Codec ID : XVID
     Duration : 1 h 46 min
     Bit rate : 793 kb/s
     Width : 608 pixels
     Height : 256 pixels
     Display aspect ratio : 2.40:1
     Frame rate : 25.000 FPS
     Color space : YUV
     Chroma subsampling : 4:2:0
     Bit depth : 8 bits
     Scan type : Progressive
     Compression mode : Lossy
     Bits/(Pixel*Frame) : 0.204
     Stream size : 603 MiB (86%)
     Writing library : XviD 1.2.0.dev47 (UTC 2006-11-01)
  Audio #1
     Format : MPEG Audio
     Format version : Version 1
     Format profile : Layer 3
     Format settings : Joint stereo / MS Stereo
     Codec ID : 55
     Codec ID/Hint : MP3
     Duration : 1 h 46 min
     Bit rate mode : Variable
     Bit rate : 115 kb/s
     Nominal bit rate : 128 kb/s
     Channel(s) : 2 channels
     Sampling rate : 48.0 kHz
     Frame rate : 41.667 FPS (1152 SPF)
     Compression mode : Lossy
     Stream size : 87.5 MiB (12%)
     Alignment : Aligned on interleaves
     Interleave, duration : 24  ms (0.60 video frame)
     Interleave, preload duration : 160  ms
     Writing library : LAME3.97
     Encoding settings : -m j -V 4 -q 2 -lowpass 17 --abr 128
  Subtitles: out PL.
DETALE TORRENTA:[ Pokaż/Ukryj ]

Podobne pliki
Against.The.Ropes.2004.DVDRip.XviD-DVL
Against.The.Ropes.2004.DVDRip.XviD-DVL
Narodziny - Birth *2004* [DVDRip][XviD-DjRobo38] [Lekt.PL + ENG.]
Narodziny - Birth *2004*  [DVDRip][XviD-DjRobo38] [Lekt.PL + ENG.]
Królowa sceny - Stage Beauty *2004* [DVDRip] [Napisy PL]
Królowa sceny - Stage Beauty *2004* [DVDRip] [Napisy PL]
Wielki przekręt - Criminal *2004* [Dvd-Rip] [DjRobo38] [Lekt.PL + ENGl.]
Wielki przekręt - Criminal *2004* [Dvd-Rip] [DjRobo38] [Lekt.PL + ENGl.]
Człowiek Ringu - Cinderella Man *2008* [DVDRip.XviD] [Napisy PL]
Człowiek Ringu - Cinderella Man *2008* [DVDRip.XviD] [Napisy PL]
Królowa sceny - Stage beauty 2004 [DVDRip.XviD] [Lektor PL]
Królowa sceny - Stage beauty 2004 [DVDRip.XviD] [Lektor PL]
Afrykańska królowa - The African Queen (1951) [DVDRip.XviD] [Napisy PL]
Afrykańska królowa - The African Queen (1951) [DVDRip.XviD] [Napisy PL]
Człowiek Ringu - Cinderella Man *2005*[DVDRip.XviD] [Lektor PL]
Człowiek Ringu - Cinderella Man *2005*[DVDRip.XviD] [Lektor PL]

Komentarze

Brak komentarzy

Zaloguj się aby skomentować