MENU

KATEGORIE

TOPLISTA

Torrent: Narodziny - Birth *2004* [DVDRip][XviD-DjRobo38] [Lekt.PL + ENG.]
Narodziny - Birth *2004*  [DVDRip][XviD-DjRobo38] [Lekt.PL + ENG.]
Dodał: umezrorv
Data: 23-02-2021
Rozmiar: 725.63 MB
Seed: 1
Peer: 0
Pobierz torrent

  • *
Głosów: 0
Kategoria: FILMY -> DIVX / XVID
Zaakceptował: nie wymagał akceptacji
Liczba pobrań: 2
Liczba komentarzy: 0
Ostatnia aktualizacja: 0000-00-00 00:00:00
OPIS:
Narodziny - Birth *2004*  [DVDRip] [DjRobo38] [Lekt.PL + Eng.]

Tytuł oryginalny: Birth
Polski tytuł: Narodziny

DWIE ŚCIEŻKI DŹWIĘKOWE, NAPISY W ODDZIELNYM PLIKU !

===========================

reżyseria: Jonathan Glazer
scenariusz: Jean-Claude Carrière, Jonathan Glazer, Milo Addica
zdjęcia: Harris Savides
muzyka: Alexandre Desplat
gatunek: Dramat / Romans
produkcja: Niemcy / USA
premiera: 8 września 2004 (świat)
oceny: FilmWeb - 6,1/10 (5.232 głosów), IMDb: 6,1/10 (34.807 głosów)
boxoffice: $23.925.492 na świecie, $5.095.038 w USA
budżet: $20.000.000

OPIS:
  Akcja filmu rozgrywa się na Manhattanie. Anna (Nicole Kidman) jest młodą wdową, która po 10 latach od śmierci ukochanego męża zamierza ponownie wyjść za mąż. Jej wybranek to Joseph (Danny Huston), życzliwy, wykształcony i zamożny mężczyzna, który przez ponad trzy lata zabiegał o jej względy. Jednak przed uroczystością ogłoszenia oficjalnych zaręczyn zjawia się u niej 10-letni chłopiec (Cameron Bright), który oznajmia, że jest wcieleniem jej zmarłego męża Seana. Twierdzi, że nadal ją kocha i prosi, by nie wychodziła za mąż za Josepha. Kobieta początkowo podchodzi sceptycznie do jego słów, lecz gdy dziecko ujawnia szczegóły znane tylko jej i jej partnerowi, powoli zaczyna zmieniać zdanie. Ich kolejne spotkania pobudzają wspomnienia i Anna zaczyna zastanawiać się nad tym, czy dokonała w życiu właściwych wyborów. Jej radykalne zachowanie zdumiewa zarówno rodzinę, jak i narzeczonego. Kobieta jest tak rozdarta wewnętrznie, że nie dociera do niej zdrowy rozsądek autorytatywnej matki (Lauren Bacall). Lecz wciąż pozostaje pytanie: czy 10-letni chłopiec mówi prawdę?
 "Narodziny" to film trudny, ambitny i kontrowersyjny. Nie ma wartkiej akcji, lecz jest czas na refleksję. To opowieść o sile miłości, której nie pokona nawet śmierć.

 INFO o filmie:
https://www.filmweb.pl/film/Narodziny-2004-95814
https://www.imdb.com/title/tt0337876/?ref_=nv_sr_srsg_0
 Trailer:
https://www.youtube.com/watch?v=kxfev3lZTZo

 OBSADA:
Nicole Kidman - Anna
Cameron Bright - młody Sean
Danny Huston - Joseph
Lauren Bacall - Eleanor
Alison Elliott - Laura
Arliss Howard - Bob
Michael Desautels - Sean
Anne Heche - Klara
Peter Stormare - Clifford
Ted Levine - pan Conte
Cara Seymour - pani Conte
Milo Addica - Jimmy
Elizabeth Greenberg - nauczycielka
Novella Nelson - Lee
Charles Goff - pan Drummond
Ben Hauck - Waldorf Bellboy
Joe M. Chalmers - Sinclair
Zoe Caldwell - pani Hill
Sheila Smith - pani Drummond

===========================

DANE techniczne:
  General:
     Format : AVI
     Format/INFO : Audio Video Interleave
     File size : 703 MiB
     Duration : 1 h 36 min
     Overall bit rate mode : Variable
     Overall bit rate : 1 023 kb/s
     Writing application : VirtualDubMod 1.5.4.1 (build 2178/release)
     Writing library : VirtualDubMod build 2178/release
  Video #0:
     Format : MPEG-4 Visual
     Format profile : Advanced Simple@L5
     Format settings : BVOP1 / Custom Matrix
     Format settings, BVOP : 1
     Format settings, QPel : No
     Format settings, GMC : No warppoints
     Format settings, Matrix : Custom
     Codec ID/Hint : XviD
     Duration : 1 h 36 min
     Bit rate : 777 kb/s
     Width : 656 pixels
     Height : 368 pixels
     Display aspect ratio : 16:9
     Frame rate : 25.000 FPS
     Color space : YUV
     Chroma subsampling : 4:2:0
     Bit depth : 8 bits
     Scan type : Progressive
     Compression mode : Lossy
     Bits/(Pixel*Frame) : 0.129
     Stream size : 534 MiB (76%)
     Writing library : XviD 1.2.0SMP (UTC 2006-01-08)
  Audio #1 (POLSKIE):
     ID : 1
     Format : MPEG Audio
     Format version : Version 1
     Format profile : Layer 3
     Format settings : Joint stereo / MS Stereo
     Codec ID : 55
     Codec ID/Hint : MP3
     Duration : 1 h 36 min
     Bit rate mode : Variable
     Bit rate : 113 kb/s
     Nominal bit rate : 128 kb/s
     Channel(s) : 2 channels
     Sampling rate : 48.0 kHz
     Frame rate : 41.667 FPS (1152 SPF)
     Compression mode : Lossy
     Stream size : 77.6 MiB (11%)
     Alignment : Aligned on interleaves
     Interleave, duration : 24  ms (0.60 video frame)
     Interleave, preload duration : 163  ms
     Writing library : LAME3.97b
     Encoding settings : -m j -V 4 -q 2 -lowpass 17 --abr 128
  Audio #2 (ANGIELSKIE):
     ID : 2
     Format : MPEG Audio
     Format version : Version 1
     Format profile : Layer 3
     Format settings : Joint stereo
     Codec ID : 55
     Codec ID/Hint : MP3
     Duration : 1 h 36 min
     Bit rate mode : Variable
     Bit rate : 112 kb/s
     Nominal bit rate : 128 kb/s
     Channel(s) : 2 channels
     Sampling rate : 48.0 kHz
     Frame rate : 41.667 FPS (1152 SPF)
     Compression mode : Lossy
     Stream size : 77.2 MiB (11%)
     Alignment : Aligned on interleaves
     Interleave, duration : 24  ms (0.60 video frame)
     Interleave, preload duration : 758  ms
     Writing library : LAME3.97b
     Encoding settings : -m j -V 4 -q 2 -lowpass 17 --abr 128
Subtitles: out PL.
DETALE TORRENTA:[ Pokaż/Ukryj ]

Podobne pliki
Wielki przekręt - Criminal *2004* [Dvd-Rip] [DjRobo38] [Lekt.PL + ENGl.]
Wielki przekręt - Criminal *2004* [Dvd-Rip] [DjRobo38] [Lekt.PL + ENGl.]
Piżama party - SleepOver *2004* [Dvd-Rip] [DjRobo38] [Lekt.PL + ENGl]
Piżama party - SleepOver *2004* [Dvd-Rip] [DjRobo38] [Lekt.PL + ENGl]
Bliźniacy - Twins *2004* [Dvd-Rip] [DjRobo38] [Dual Audio: Lekt.PL + ENG.]
Bliźniacy - Twins *2004*  [Dvd-Rip] [DjRobo38] [Dual Audio: Lekt.PL + ENG.]
Junior - 1994 [Dvd-Rip] [DjRobo38] [Dual Audio; Lekt.PL + ENGl.]
Junior - 1994  [Dvd-Rip] [DjRobo38] [Dual Audio; Lekt.PL + ENGl.]
Miłość w Seattle - Love Happens *2009* [Dvd-Rip] [DjRobo38] [Lekt.PL + ENGl.]
Miłość w Seattle - Love Happens *2009*  [Dvd-Rip] [DjRobo38] [Lekt.PL + ENGl.]
Kamerdyner - The Butler *2013* [Dvd-Rip] [DjRobo38] [Dual Audio: Lekt.PL + ENGl.]
Kamerdyner - The Butler  *2013*  [Dvd-Rip] [DjRobo38] [Dual Audio: Lekt.PL + ENGl.]
Wielkie wesele - The Big Wedding *2012* [Dvd-Rip] [DjRobo38] [Dual Audio: Lekt.PL + ENGl.]
Wielkie wesele - The Big Wedding *2012*    [Dvd-Rip] [DjRobo38] [Dual Audio: Lekt.PL + ENGl.]
Narodziny narodu / The Birth of a Nation (2016) [480p] [BDRip] [XviD] [AC3-K12] [Lektor PL]
Narodziny narodu / The Birth of a Nation (2016) [480p] [BDRip] [XviD] [AC3-K12] [Lektor PL]

Komentarze

Brak komentarzy

Zaloguj się aby skomentować