MENU

KATEGORIE

TOPLISTA

Torrent: Blood, Sweat & Tears - Blood, Sweat & Tears (1969) (PBTHAL LP 24-96) [FLAC]
Blood, Sweat & Tears - Blood, Sweat & Tears (1969) (PBTHAL LP 24-96) [FLAC]
Dodał: Beatrix
Data: 01-04-2021
Rozmiar: 907.62 MB
Seed: 1
Peer: 0
Pobierz torrent

  • *
Głosów: 0
Kategoria: MUZYKA -> ZAGRANICZNA
Zaakceptował: nie wymagał akceptacji
Liczba pobrań: 2
Liczba komentarzy: 0
Ostatnia aktualizacja: 0000-00-00 00:00:00
OPIS:
Blood, Sweat & Tears
Blood, Sweat & Tears (1969)
FLAC LOSSLESS 24bit-96kHz
PBTHAL Vinyl Rip
Super Disk


allmusic.com...

The difference between Blood, Sweat & Tears and the group's preceding long-player, Child Is Father to the Man, is the difference between a monumental seller and a record that was "merely" a huge critical success. Arguably, the Blood, Sweat & Tears that made this self-titled second album -- consisting of five of the eight original members and four newcomers, including singer David Clayton-Thomas -- was really a different group from the one that made Child Is Father to the Man, which was done largely under the direction of singer/songwriter/keyboard player/arranger Al Kooper. They had certain similarities to the original: the musical mixture of classical, jazz, and rock elements was still apparent, and the interplay between the horns and the keyboards was still occurring, even if those instruments were being played by different people. Kooper was even still present as an arranger on two tracks, notably the initial hit "You've Made Me So Very Happy." But the second BS&T, under the aegis of producer James William Guercio, was a less adventurous unit, and, as fronted by Clayton-Thomas, a far more commercial one. Not only did the album contain three songs that neared the top of the charts as singles -- "Happy," "Spinning Wheel," and "And When I Die" -- but the whole album, including an arrangement of "God Bless the Child" and the radical rewrite of Traffic's "Smiling Phases," was wonderfully accessible. It was a repertoire to build a career on, and Blood, Sweat & Tears did exactly that, although they never came close to equaling this album.


foobar2000 1.4.3 / Dynamic Range Meter 1.1.1
log date: 2021-03-24 18:54:50

--------------------------------------------------------------------------------
Analyzed: Blood, Sweat & Tears / Blood, Sweat & Tears
--------------------------------------------------------------------------------

DR         Peak         RMS     Duration Track
--------------------------------------------------------------------------------
DR13      -3.68 dB   -20.71 dB      2:35 01-Variations On A Theme By Eric Satie (1st And 2nd Movements)
DR13      -2.63 dB   -18.72 dB      5:11 02-Smiling Phases
DR12      -2.57 dB   -18.31 dB      3:10 03-Sometimes In Winter
DR11      -3.11 dB   -16.88 dB      3:04 04-More And More
DR14      -2.30 dB   -20.45 dB      4:06 05-And When I Die
DR13      -3.37 dB   -19.62 dB      5:56 06-God Bless The Child
DR13      -2.17 dB   -18.36 dB      4:09 07-Spinning Wheel
DR14      -0.82 dB   -18.10 dB      4:20 08-You've Made Me So Very Happy
DR13      -3.68 dB   -20.36 dB     11:51 09-Blues - Part II
DR9       -8.41 dB   -22.38 dB      1:35 10-Variations On A Theme By Eric Satie (1st Movement)

Number of tracks:  10
Official DR value: DR13

Samplerate:        96000 Hz
Channels:          2
Bits per sample:   24
Bitrate:           2533 kbps
Codec:             FLAC
DETALE TORRENTA:[ Pokaż/Ukryj ]

Podobne pliki
Blood,Sweat & Tears - Original Album Classics [mp3@320]
Blood,Sweat & Tears - Original Album Classics [mp3@320]
Type O Negative - Blood Sweat And Tears (tribute)
Type O Negative - Blood Sweat And Tears (tribute)
The Road Hammers - Blood Sweat And Steel (2008) [mp3@195]
The Road Hammers - Blood Sweat And Steel (2008) [mp3@195]
Krew, pot i terror - Blood, Sweat and Terrors *2018* [WEB-DL] [AMZN] [XViD-OzW] [Lektor PL]
Krew, pot i terror - Blood, Sweat and Terrors *2018* [WEB-DL] [AMZN] [XViD-OzW] [Lektor PL]
Krew, pot i. kłamstwa - Blood, Sweat, and Lies [2018] [480p.BRRip.Xvid-NoNaNo] [Lektor PL]
Krew, pot i. kłamstwa - Blood, Sweat, and Lies [2018] [480p.BRRip.Xvid-NoNaNo] [Lektor PL]
Sick Of It All - Blood, Sweet, And No Tears (1989) [mp3@320]
Sick Of It All - Blood, Sweet, And No Tears (1989) [mp3@320]
U2 - Under A Blood Red Sky (1983) (PBTHAL LP 24-96) [FLAC]
U2 - Under A Blood Red Sky (1983) (PBTHAL LP 24-96) [FLAC]
Slayer - Reign In Blood (1986) (PBTHAL LP 24-96) [FLAC]
Slayer - Reign In Blood (1986) (PBTHAL LP 24-96) [FLAC]

Komentarze

Brak komentarzy

Zaloguj się aby skomentować