MENU

KATEGORIE

TOPLISTA

Torrent: Narzeczony na niby *2018* [XviD] [688p] [Dvd-Rip] [DjRobo38]
Narzeczony na niby *2018*   [XviD] [688p] [Dvd-Rip] [DjRobo38]
Dodał: umezrorv
Data: 01-04-2021
Rozmiar: 2.37 GB
Seed: 1
Peer: 0
Pobierz torrent

  • *
Głosów: 0
Kategoria: FILMY -> DIVX / XVID
Zaakceptował: nie wymagał akceptacji
Liczba pobrań: 3
Liczba komentarzy: 0
Ostatnia aktualizacja: 0000-00-00 00:00:00
OPIS:
Narzeczony na niby - 2018   [688p] [Dvd-Rip; DjRobo38]
..::(Info)::..

reżyseria:  Bartosz Prokopowicz
scenariusz: Katarzyna Sarnowska, Katarzyna Priwieziencew
gatunek:  Komedia romantyczna
produkcja:  Polska
premiera: 12 stycznia 2018 (świat)
oceny: FilmWeb: 5,9 (26.888 ocen), IMDb: 5,1/10 (274 gł.)
..::(Opis)::..

 "Narzeczony na niby" to opowieść o związkowych perypetiach, które pokocha każdy, kto choć raz zakochał się w niewłaściwej osobie. Idealne życie, o którym marzymy, rzadko kiedy tak naprawdę jest idealne, a ci którym oddajemy nasze serca, niestety potrafią je z łatwością łamać. "Narzeczony na niby" to historia Kariny (Julia Kamińska) i Szymona (Piotr Stramowski). Ona pracuje przy produkcji telewizyjnego show, z którego reżyserem (Piotr Adamczyk) związana jest emocjonalnie. Niestety szybko odkrywa, że zainwestowała w ten związek dużo więcej niż jej partner. Zdążyła się nim już jednak pochwalić przed rodziną, która spodziewa się spotkać ukochanego na zbliżającym się ślubie siostry Kariny. Gdy któregoś dnia życie Kariny zamieni się w pasmo nieszczęść, postanowi ona wziąć sprawy w swoje ręce i "podkoloruje" rzeczywistość. Szymon z kolei to młody i przystojny samotny ojciec, który haruje jako taksówkarz, by zdobyć pieniądze na obóz piłkarski syna. Nie wie jednak, że chłopak ma zupełnie inny talent. Kiedy jego taksówka niechcący "puknie" samochód Kariny, rozpocznie się ich przygoda z uczuciem, które zrodziło się całkiem przypadkowo. Niestety uruchomiony festiwal małych i dużych kłamstw wymknie się jej spod kontroli doprowadzając do wielu przezabawnych sytuacji. W konsekwencji wszyscy bohaterowie filmu, będą musieli zrobić porządek zarówno w swoim życiu, jak i w swoich sercach.
..::(O Filmie)::..

https://www.filmweb.pl/film/Narzeczony+na+niby-2018-790257
https://www.imdb.com/title/tt7201558/?ref_=nv_sr_srsg_0
  zwiastun filmu:
https://www.youtube.com/watch?v=UwD8xYULG1g
..::(Obsada)::..

Julia Kamińska - Karina
Piotr Stramowski - Szymon
Sonia Bohosiewicz - Basia
Piotr Adamczyk - Darek
Barbara Kurdej-Szatan - Asystentka Kasia
Tomasz Karolak - Bartek
Dorota Kolak - Pani Ania
Mikołaj Roznerski - Barnaba
Ilona Ostrowska - Kobieta w taksx26oacute;wce
Krzysztof Stelmaszyk - Dziadek Franek
Andrzej Grabowski - Wujek Mariusz
Sebastian Karpiel - Juror
Piotr Więcławski - Juror
Ewa Kasprzyk - Ciotka Maria
Janusz Chabior - Ojciec
Jan Szydłowski - Tolek
..::(Screeny)::..

https://www.youtube.com/watch?v=UwD8xYULG1g
..::(Dane Techniczne)::..

  General
Format : AVI (Audio Video Interleave)
File size : 2.35 GiB
Duration : 1 h 45 min
Overall bit rate : 3 204 kb/s

  Video #0
Format : MPEG-4 Visual
Codec ID : XVID
Bit rate : 3 000 kb/s
Width : 1 280 pixels
Height : 688 pixels
Display aspect ratio : 1.85:1
Stream size : 2.20 GiB (94%)

  Audio #1
Format : AC-3
Bit rate : 192 kb/s
Channel(s) : 2 channels
Stream size : 144 MiB (6%)
DETALE TORRENTA:[ Pokaż/Ukryj ]

Podobne pliki
Żona Na Niby - Just Go With It *2011* [DVDRip] [XviD] [Lektor PL]
Żona Na Niby - Just Go With It *2011* [DVDRip] [XviD] [Lektor PL]
Żona na niby / Just Go with It (2011) [720p] [BRRip] [XviD] [AC3-ELiTE] [Lektor PL]
Żona na niby / Just Go with It (2011) [720p] [BRRip] [XviD] [AC3-ELiTE] [Lektor PL]
Narzeczony mimo woli - The Proposal *2009* [TS.XviD]
Narzeczony mimo woli - The Proposal *2009* [TS.XviD]
Narzeczony mimo woli - The Proposal 2009 [TS.XviD]
Narzeczony mimo woli - The Proposal 2009 [TS.XviD]
Narzeczony mimo woli - The Proposal *2009* [CAM.XViD]
Narzeczony mimo woli - The Proposal *2009* [CAM.XViD]
Narzeczony mimo woli - The Proposal (2009) [TS.XviD]
Narzeczony mimo woli - The Proposal (2009) [TS.XviD]
Narzeczony mimo woli - The Proposal *2009* [TS.XviD] [ENG]
Narzeczony mimo woli - The Proposal *2009* [TS.XviD] [ENG]
Narzeczony mimo woli - The Proposal (2009) [CAM.XviD]
Narzeczony mimo woli - The Proposal (2009) [CAM.XviD]

Komentarze

Brak komentarzy

Zaloguj się aby skomentować