MENU

KATEGORIE

TOPLISTA

Torrent: The Rascals - Greatest Hits (1968) (PBTHAL LP 24-96) [FLAC]
The Rascals - Greatest Hits (1968) (PBTHAL LP 24-96) [FLAC]
Dodał: Beatrix
Data: 01-04-2021
Rozmiar: 380.15 MB
Seed: 1
Peer: 0
Pobierz torrent

  • *
Głosów: 0
Kategoria: MUZYKA -> ZAGRANICZNA
Zaakceptował: nie wymagał akceptacji
Liczba pobrań: 0
Liczba komentarzy: 0
Ostatnia aktualizacja: 0000-00-00 00:00:00
OPIS:
The Rascals
Time Peace: The Rascals' Greatest Hits (1968)
FLAC LOSSLESS 24bit-96kHz
UK PBTHAL Vinyl Rip
Mono


allmusic.com...

Arguably the greatest greatest-hits album of the '60s. A White-soul classic.

The Rascals, along with the Righteous Brothers, Mitch Ryder, and precious few others, were the pinnacle of '60s blue-eyed soul. The Rascals' talents, however, would have to rate above their rivals, if for nothing else than the simple fact that they, unlike many other blue-eyed soulsters, penned much of their own material. They also proved more adept at changing with the fast-moving times, drawing much of their inspiration from British Invasion bands, psychedelic rock, gospel, and even a bit of jazz and Latin music. They were at their best on classic singles like "Good Lovin'," "How Can I Be Sure," "Groovin'," and "People Got to Be Free." When they tried to stretch their talents beyond the impositions of the three-minute 45, they couldn't pull it off, a failure which -- along with crucial personnel losses -- effectively finished the band as a major force by the 1970s.


foobar2000 1.4.3 / Dynamic Range Meter 1.1.1
log date: 2021-03-24 19:11:29

--------------------------------------------------------------------------------
Analyzed: The Rascals / Time Peace: The Rascals' Greatest Hits
--------------------------------------------------------------------------------

DR         Peak         RMS     Duration Track
--------------------------------------------------------------------------------
DR11      -1.60 dB   -15.44 dB      2:44 01-I Ain't Gonna Eat Out My Heart Anymore
DR11      -0.78 dB   -14.10 dB      2:32 02-Good Lovin'
DR11      -1.41 dB   -14.89 dB      2:30 03-You Better Run
DR13      -0.70 dB   -15.74 dB      2:46 04-Come On Up
DR12      -6.25 dB   -21.42 dB      4:03 05-Mustang Sally
DR12      -1.55 dB   -15.53 dB      2:33 06-Love Is A Beautiful Thing
DR10      -4.01 dB   -14.76 dB      4:04 07-In The Midnight Hour
DR13      -2.90 dB   -19.23 dB      3:02 08-Lonely Too Long
DR11      -8.17 dB   -21.54 dB      2:32 09-Groovin'
DR13      -2.78 dB   -19.75 dB      2:50 10-A Girl Like You
DR12      -4.46 dB   -21.85 dB      2:55 11-How Can I Be Sure
DR11      -0.70 dB   -14.40 dB      2:18 12-It's Wonderful
DR13      -3.04 dB   -18.08 dB      2:57 13-Easy Rollin'
DR11      -1.52 dB   -14.96 dB      2:36 14-A Beautiful Morning

Number of tracks:  14
Official DR value: DR12

Samplerate:        96000 Hz
Channels:          2
Bits per sample:   24
Bitrate:           1329 kbps
Codec:             FLAC

DETALE TORRENTA:[ Pokaż/Ukryj ]

Podobne pliki
Jimi Hendrix - Smash Hits (1968) (PBTHAL LP 24-96) [FLAC]
Jimi Hendrix - Smash Hits (1968) (PBTHAL LP 24-96) [FLAC]
War - Greatest Hits (1976) (PBTHAL LP 24-96) [FLAC]
War - Greatest Hits (1976) (PBTHAL LP 24-96) [FLAC]
Steely Dan - Greatest Hits (1978) (RL PBTHAL LP 24-96) [FLAC]
Steely Dan - Greatest Hits (1978) (RL PBTHAL LP 24-96) [FLAC]
Nazareth - Greatest Hits (1975) (UK PBTHAL LP 24-96) [FLAC]
Nazareth - Greatest Hits (1975) (UK PBTHAL LP 24-96) [FLAC]
Linda Ronstadt - Greatest Hits (1976) (PBTHAL LP 24-96) [FLAC]
Linda Ronstadt - Greatest Hits (1976) (PBTHAL LP 24-96) [FLAC]
Linda Ronstadt - Greatest Hits Vol. 2 (1980) (PBTHAL LP 24-96) [FLAC]
Linda Ronstadt - Greatest Hits Vol. 2 (1980) (PBTHAL LP 24-96) [FLAC]
Neil Diamond - 12 Greatest Hits (1974) (PBTHAL LP 24-96) [FLAC]
Neil Diamond - 12 Greatest Hits (1974) (PBTHAL LP 24-96) [FLAC]
Ronnie Milsap - Greatest Hits (1980) (PBTHAL LP 24-96) [FLAC]
Ronnie Milsap - Greatest Hits (1980) (PBTHAL LP 24-96) [FLAC]

Komentarze

Brak komentarzy

Zaloguj się aby skomentować