MENU

KATEGORIE

TOPLISTA

Torrent: Chicago - Chicago Transit Authority (1969) (PBTHAL LP 24-96) [FLAC]
Chicago - Chicago Transit Authority (1969) (PBTHAL LP 24-96) [FLAC]
Dodał: Beatrix
Data: 01-04-2021
Rozmiar: 1.56 GB
Seed: 1
Peer: 0
Pobierz torrent

  • *
Głosów: 0
Kategoria: MUZYKA -> ZAGRANICZNA
Zaakceptował: nie wymagał akceptacji
Liczba pobrań: 0
Liczba komentarzy: 0
Ostatnia aktualizacja: 0000-00-00 00:00:00
OPIS:
Chicago
Chicago Transit Authority (1969)
FLAC LOSSLESS 24bit-96kHz
UK PBTHAL Vinyl Rip


allmusic.com...

Few debut albums can boast as consistently solid an effort as the self-titled Chicago Transit Authority (1969). Even fewer can claim to have enough material to fill out a double-disc affair. Although this long- player was ultimately the septet's first national exposure, the group was far from the proverbial "overnight sensation." Under the guise of the Big Thing, the group soon to be known as CTA had been honing its eclectic blend of jazz, classical, and straight-ahead rock & roll in and around the Windy City for several years.


foobar2000 1.4.3 / Dynamic Range Meter 1.1.1
log date: 2021-01-08 11:54:52

--------------------------------------------------------------------------------
Analyzed: Chicago / Chicago Transit Authority
--------------------------------------------------------------------------------

DR         Peak         RMS     Duration Track
--------------------------------------------------------------------------------
DR12      -1.35 dB   -14.77 dB      6:36 01-Introduction
DR11      -3.26 dB   -17.81 dB      4:36 02-Does Anybody Really Know What Time It Is?
DR12      -1.46 dB   -16.79 dB      7:58 03-Beginnings
DR12      -0.86 dB   -15.22 dB      5:02 04-Questions 67 And 68
DR11      -0.86 dB   -14.58 dB      3:25 05-Listen
DR12      -0.70 dB   -14.28 dB      8:38 06-Poem 58
DR9       -6.26 dB   -16.93 dB      6:55 07-Free Form Guitar
DR12      -0.70 dB   -15.72 dB      6:13 08-South California Purples
DR12      -1.37 dB   -16.00 dB      7:42 09-I'm a Man
DR10      -6.78 dB   -19.19 dB      0:58 10-Prologue, August 29, 1968
DR11      -1.35 dB   -15.92 dB      4:16 11-Someday (August 29, 1968)
DR12      -2.09 dB   -15.89 dB     14:43 12-Liberation

Number of tracks:  12
Official DR value: DR11

Samplerate:        96000 Hz
Channels:          2
Bits per sample:   24
Bitrate:           2836 kbps
Codec:             FLAC
DETALE TORRENTA:[ Pokaż/Ukryj ]

Podobne pliki
Chicago - Chicago Transit Authority [Flac 8]
Chicago - Chicago Transit Authority [Flac 8]
Chicago Med - Chicago Med: Derailed (2018) [480p] [S05E05-06] [HDTV] [XviD] [AC3-H1] [Lektor PL]
Chicago Med - Chicago Med: Derailed (2018) [480p] [S05E05-06] [HDTV] [XviD] [AC3-H1] [Lektor PL]
Chicago Med - Chicago Med: Derailed (2018) [480p] [S05E07-08] [HDTV] [XviD] [AC3-H1] [Lektor PL]
Chicago Med - Chicago Med: Derailed (2018) [480p] [S05E07-08] [HDTV] [XviD] [AC3-H1] [Lektor PL]
Proces Siódemki z Chicago - The Trial of the Chicago 7 (2020) [720p] [NF] [WEB-DL] [XviD] [AC3-H1] [Lektor PL]
Proces Siódemki z Chicago - The Trial of the Chicago 7 (2020) [720p] [NF] [WEB-DL] [XviD] [AC3-H1] [Lektor PL]
Proces Siódemki z Chicago / The Trial of the Chicago 7 (2020) [480p] [WEB-DL] [XviD] [DD5.1-K83] [Lektor PL]
Proces Siódemki z Chicago / The Trial of the Chicago 7 (2020) [480p] [WEB-DL] [XviD] [DD5.1-K83] [Lektor PL]
Proces Siódemki z Chicago / The Trial of the Chicago 7 (2020) [NF] [720p] [WEB-DL] [XviD] [DD5.1-K83] [Lektor PL]
Proces Siódemki z Chicago / The Trial of the Chicago 7 (2020) [NF] [720p] [WEB-DL] [XviD] [DD5.1-K83] [Lektor PL]
Chicago Med - Chicago Med: Derailed (2018) [480p] [S04E09-10] [HDTV] [XviD] [AC3-H1] [Lektor PL]
Chicago Med - Chicago Med: Derailed (2018) [480p] [S04E09-10] [HDTV] [XviD] [AC3-H1] [Lektor PL]
Proces Siódemki z Chicago / The Trial of the Chicago 7 (2020) [NF] [1080p] [WEB-DL] [x264] [AC3-KiT] [Lektor PL]
Proces Siódemki z Chicago / The Trial of the Chicago 7 (2020) [NF] [1080p] [WEB-DL] [x264] [AC3-KiT] [Lektor PL]

Komentarze

Brak komentarzy

Zaloguj się aby skomentować