MENU

KATEGORIE

TOPLISTA

Torrent: The Hollies - Hollies' Greatest (Mono) (1968) (PBTHAL LP 24-96) [FLAC]
The Hollies - Hollies' Greatest (Mono) (1968) (PBTHAL LP 24-96) [FLAC]
Dodał: Beatrix
Data: 04-04-2021
Rozmiar: 412.54 MB
Seed: 1
Peer: 0
Pobierz torrent

  • *
Głosów: 0
Kategoria: MUZYKA -> ZAGRANICZNA
Zaakceptował: nie wymagał akceptacji
Liczba pobrań: 3
Liczba komentarzy: 0
Ostatnia aktualizacja: 0000-00-00 00:00:00
OPIS:
The Hollies
Hollies' Greatest (Mono) (1968)
FLAC LOSSLESS 24bit-96kHz
UK PBTHAL Vinyl Rip


allmusic.com...

When the Hollies -- one of the best and most commercially successful pop/rock acts of the British Invasion -- began recording in 1963, they relied heavily upon the R&B/early rock & roll covers that provided the staple diet for countless British bands of the time. They quickly developed a more distinctive style featuring three-part harmonies (heavily influenced by the Everly Brothers), ringing guitars, and hook-happy material, penned by both outside writers (especially future 10cc member Graham Gouldman) and themselves, eventually composing most of their repertoire on their own. The best early Hollies records evoke an infectious, melodic cheer similar to that of the early Beatles, although the Hollies were neither in their class (not an insult: nobody else was) nor demonstrated a similar capacity for artistic growth. They tried, though, easing into somewhat more sophisticated folk-rock and mildly psychedelic sounds as the decade wore on, especially on their albums (which contain quite a few overlooked highlights).


foobar2000 1.4.3 / Dynamic Range Meter 1.1.1
log date: 2020-12-14 09:13:11

--------------------------------------------------------------------------------
Analyzed: The Hollies / Hollies' Greatest (Mono)
--------------------------------------------------------------------------------

DR         Peak         RMS     Duration Track
--------------------------------------------------------------------------------
DR10      -0.70 dB   -12.60 dB      2:28 01-I Can't Let Go
DR11      -1.00 dB   -13.76 dB      2:57 02-Bus Stop
DR11      -1.32 dB   -12.97 dB      2:18 03-We're Through
DR11      -1.11 dB   -13.64 dB      2:58 04-Carrie Anne
DR9       -1.95 dB   -12.96 dB      2:22 05-Here I Go Again
DR10      -1.48 dB   -13.86 dB      3:11 06-King Midas In Reverse
DR9       -2.05 dB   -12.55 dB      2:56 07-Yes I Will
DR10      -1.74 dB   -13.81 dB      2:27 08-I'm Alive
DR11      -2.11 dB   -15.20 dB      2:33 09-Just One Look
DR11      -1.46 dB   -14.24 dB      3:12 10-On A Carousel
DR11      -0.70 dB   -14.06 dB      2:16 11-Stay
DR10      -2.70 dB   -14.51 dB      2:19 12-Look Through Any Window
DR11      -3.13 dB   -15.02 dB      2:52 13-Stop, Stop, Stop
DR11      -2.14 dB   -15.04 dB      3:11 14-Jennifer Eccles

Number of tracks:  14
Official DR value: DR11

Samplerate:        96000 Hz
Channels:          2
Bits per sample:   24
Bitrate:           1482 kbps
Codec:             FLAC
DETALE TORRENTA:[ Pokaż/Ukryj ]

Podobne pliki
The Hollies - The Vintage Hollies (1967)
The Hollies - The Vintage Hollies (1967)
The Hollies: Not The Hits Again (1963-1969) [FLAC]
The Hollies: Not The Hits Again (1963-1969) [FLAC]
The Rascals - Greatest Hits (1968) (PBTHAL LP 24-96) [FLAC]
The Rascals - Greatest Hits (1968) (PBTHAL LP 24-96) [FLAC]
The Hollies - Evolution (1967) [mp3@256]
The Hollies - Evolution (1967) [mp3@256]
The Hollies-Epic Anthology
The Hollies-Epic Anthology
The Black Hollies - Softly Towards The Light
The Black Hollies - Softly Towards The Light
The Beach Boys - Pet Sounds (Mono) (1966) (PBTHAL LP 24-96) [FLAC]
The Beach Boys - Pet Sounds (Mono) (1966) (PBTHAL LP 24-96) [FLAC]
Pink Floyd - The Piper At The Gates Of Dawn (1967) (UK Mono PBTHAL 24-96) [FLAC]
Pink Floyd - The Piper At The Gates Of Dawn (1967) (UK Mono PBTHAL 24-96) [FLAC]

Komentarze

Brak komentarzy

Zaloguj się aby skomentować