MENU

KATEGORIE

TOPLISTA

Torrent: The Kinks - Face To Face (Mono) (1966) (PBTHAL LP 24-96) [FLAC]
The Kinks - Face To Face (Mono) (1966) (PBTHAL LP 24-96) [FLAC]
Dodał: Beatrix
Data: 04-04-2021
Rozmiar: 422.75 MB
Seed: 1
Peer: 0
Pobierz torrent

  • *
Głosów: 0
Kategoria: MUZYKA -> ZAGRANICZNA
Zaakceptował: nie wymagał akceptacji
Liczba pobrań: 2
Liczba komentarzy: 0
Ostatnia aktualizacja: 0000-00-00 00:00:00
OPIS:
The Kinks
Face To Face (Mono) (1966)
FLAC LOSSLESS 24bit-96kHz
UK PBTHAL Vinyl Rip
2015 Reissue


allmusic.com...

The Kink Kontroversy was a considerable leap forward in terms of quality, but it pales next to Face to Face, one of the finest collections of pop songs released during the '60s. Conceived as a loose concept album, Face to Face sees Ray Davies' fascination with English class and social structures flourish, as he creates a number of vivid character portraits. Davies' growth as a lyricist coincided with the Kinks' musical growth. Face to Face is filled with wonderful moments, whether it's the mocking Hawaiian guitars of the rocker "Holiday in Waikiki," the droning Eastern touches of "Fancy," the music hall shuffle of "Dandy," or the lazily rolling "Sunny Afternoon." And that only scratches the surface of the riches of Face to Face, which offers other classics like "Rosy Won't You Please Come Home," "Party Line," "Too Much on My Mind," "Rainy Day in June," and "Most Exclusive Residence for Sale," making the record one of the most distinctive and accomplished albums of its time.


foobar2000 1.4.3 / Dynamic Range Meter 1.1.1
log date: 2020-12-13 20:58:40

--------------------------------------------------------------------------------
Analyzed: The Kinks / Face To Face
--------------------------------------------------------------------------------

DR         Peak         RMS     Duration Track
--------------------------------------------------------------------------------
DR11      -0.76 dB   -14.38 dB      2:37 01-Party Line
DR10      -3.10 dB   -15.35 dB      2:36 02-Rosy Won't You Please Come Home
DR12      -2.76 dB   -16.28 dB      2:15 03-Dandy
DR12      -2.46 dB   -16.76 dB      2:31 04-Too Much On My Mind
DR11      -4.12 dB   -17.31 dB      2:20 05-Session Man
DR11      -2.54 dB   -17.08 dB      3:13 06-Rainy Day In June
DR12      -0.70 dB   -15.09 dB      3:03 07-House In The Country
DR14      -1.94 dB   -18.34 dB      2:51 08-Holiday In Waikiki
DR12      -3.08 dB   -17.85 dB      2:53 09-Most Exclusive Residence For Sale
DR12      -3.79 dB   -18.01 dB      2:34 10-Fancy
DR14      -1.14 dB   -17.29 dB      3:18 11-Little Miss Queen Of Darkness
DR11      -4.61 dB   -17.77 dB      2:49 12-You're Looking Fine
DR11      -2.90 dB   -15.62 dB      3:36 13-Sunny Afternoon
DR10      -6.60 dB   -18.21 dB      2:29 14-I'll Remember

Number of tracks:  14
Official DR value: DR12

Samplerate:        96000 Hz
Channels:          2
Bits per sample:   24
Bitrate:           1533 kbps
Codec:             FLAC


DETALE TORRENTA:[ Pokaż/Ukryj ]

Podobne pliki
The Beach Boys - Pet Sounds (Mono) (1966) (PBTHAL LP 24-96) [FLAC]
The Beach Boys - Pet Sounds (Mono) (1966) (PBTHAL LP 24-96) [FLAC]
Phil Collins - Face Value (1981) (PBTHAL LP 24-96) [FLAC]
Phil Collins - Face Value (1981) (PBTHAL LP 24-96) [FLAC]
Cover My Face - Brittany Amber takes 30 loads on her face
Cover My Face - Brittany Amber takes 30 loads on her face
Cover My Face - Trisha Marx enjoys getting big loads on her face
Cover My Face - Trisha Marx enjoys getting big loads on her face
Artist/Band: Alison Moyet Album/Song: Singles Year: 1995 Country: UK Genre: Pop Quality: FLAC 01 The First Time Ever I Saw Your Face.flac 02 Only You.flac 03 Nobody's Diary.flac 04 Situation.flac 05 Love Resurrection.flac 06 All Cried Out
  Artist/Band:   Alison Moyet Album/Song:   Singles Year:   1995 Country:   UK Genre:   Pop Quality:   FLAC    01 The First Time Ever I Saw Your Face.flac 02 Only You.flac 03 Nobody's Diary.flac 04 Situation.flac 05 Love Resurrection.flac 06 All Cried Out
Face to face: Don\'t turn away
Face to face: Don\'t turn away
Pink Floyd - The Piper At The Gates Of Dawn (1967) (UK Mono PBTHAL 24-96) [FLAC]
Pink Floyd - The Piper At The Gates Of Dawn (1967) (UK Mono PBTHAL 24-96) [FLAC]
Holy Mother - Face This Burn (2021) [FLAC]
Holy Mother - Face This Burn (2021) [FLAC]

Komentarze

Brak komentarzy

Zaloguj się aby skomentować