MENU

KATEGORIE

TOPLISTA

Torrent: The Rolling Stones - Flowers (1967) (PBTHAL LP 24-44) [FLAC]
The Rolling Stones - Flowers (1967) (PBTHAL LP 24-44) [FLAC]
Dodał: Beatrix
Data: 04-04-2021
Rozmiar: 404.60 MB
Seed: 1
Peer: 0
Pobierz torrent

  • *
Głosów: 0
Kategoria: MUZYKA -> ZAGRANICZNA
Zaakceptował: nie wymagał akceptacji
Liczba pobrań: 3
Liczba komentarzy: 0
Ostatnia aktualizacja: 0000-00-00 00:00:00
OPIS:
The Rolling Stones
Flowers (1967)
FLAC LOSSLESS 24bit-44.1kHz
DE PBTHAL Vinyl Rip


allmusic.com...

Flowers was dismissed as a rip-off of sorts by some critics, since it took the patchwork bastardization of British releases for the American audience to extremes, gathering stray tracks from the U.K. versions of Aftermath and Between the Buttons, 1966-1967 singles (some of which had already been used on the U.S. editions of Aftermath and Between the Buttons), and a few outtakes. Judged solely by the music, though, it's rather great. "Lady Jane," "Ruby Tuesday," and "Let's Spend the Night Together" are all classics (although they had all been on an LP before); the 1966 single "Mother's Little Helper," a Top Ten hit, is also terrific; and "Have You Seen Your Mother Baby, Standing in the Shadow?," making its first album appearance, is the early Stones at their most surrealistic and angst-ridden. A lot of the rest of the cuts rate among their most outstanding 1966-1967 work. "Out of Time" is hit-worthy in its own right (and in fact topped the British charts in an inferior cover by Chris Farlowe); "Backstreet Girl," with its European waltz flavor, is one of the great underrated Stones songs. The same goes for the psychedelic Bo Diddley of "Please Go Home," and the acoustic, pensively sardonic "Sittin' on a Fence," with its strong Appalachian flavor. Almost every track is strong, so if you're serious about your Stones, don't pass this by just because a bunch of people slag it as an exploitative marketing trick (which it is). There's some outstanding material you can't get anywhere else, and the album as a whole plays very well from end to end.


foobar2000 1.4.3 / Dynamic Range Meter 1.1.1
log date: 2021-03-23 21:05:32

--------------------------------------------------------------------------------
Analyzed: The Rolling Stones / Flowers
--------------------------------------------------------------------------------

DR         Peak         RMS     Duration Track
--------------------------------------------------------------------------------
DR11      -1.59 dB   -15.26 dB      3:19 01-Ruby Tuesday
DR10      -1.03 dB   -13.39 dB      2:35 02-Have You Seen Your Mother, Baby, Standing In The Shadow?
DR11      -1.43 dB   -14.99 dB      3:40 03-Let's Spend The Night Together
DR13      -3.67 dB   -20.58 dB      3:13 04-Lady Jane
DR13      -1.19 dB   -17.71 dB      3:46 05-Out Of Time
DR11      -1.25 dB   -15.30 dB      2:41 06-My Girl
DR12      -0.70 dB   -15.48 dB      3:29 07-Backstreet Girl
DR11      -0.69 dB   -13.14 dB      3:21 08-Please Go Home
DR11      -1.41 dB   -14.28 dB      2:48 09-Mother's Little Helper
DR13      -2.55 dB   -18.30 dB      2:50 10-Take It Or Leave It
DR12      -1.22 dB   -15.92 dB      2:56 11-Ride On, Baby
DR12      -2.71 dB   -18.89 dB      3:04 12-Sittin' On A Fence

Number of tracks:  12
Official DR value: DR12

Samplerate:        44100 Hz
Channels:          2
Bits per sample:   24
Bitrate:           1413 kbps
Codec:             FLAC


DETALE TORRENTA:[ Pokaż/Ukryj ]

Podobne pliki
The Rolling Stones - Let It Bleed (1969) (PBTHAL LP 24-96) [FLAC]
The Rolling Stones - Let It Bleed (1969) (PBTHAL LP 24-96) [FLAC]
The Rolling Stones - Tattoo You (1981) (PBTHAL LP 24-96) [FLAC]
The Rolling Stones - Tattoo You (1981) (PBTHAL LP 24-96) [FLAC]
The Rolling Stones - Sticky Fingers (1971) (UK PBTHAL Vinyl 24-96) [FLAC]
The Rolling Stones - Sticky Fingers (1971) (UK PBTHAL Vinyl 24-96) [FLAC]
The Rolling Stones - Let It Bleed , [Lossless Flac]
The Rolling Stones - Let It Bleed , [Lossless Flac]
The Rolling Stones - Halloween (2020) [FLAC]
The Rolling Stones - Halloween (2020) [FLAC]
Rolling Stones - Forty Licks (2002) [FLAC]
Rolling Stones - Forty Licks (2002) [FLAC]
The Rolling Stones - Black And Blue (1976) [EAC-FLAC]
The Rolling Stones - Black And Blue (1976) [EAC-FLAC]
Rolling Stones - Live Licks *2004* [ FLAC-EAC]
Rolling Stones - Live Licks *2004* [ FLAC-EAC]

Komentarze

Brak komentarzy

Zaloguj się aby skomentować