MENU

KATEGORIE

TOPLISTA

Torrent: George Harrison - All Things Must Pass (1970) (PBTHAL LP 24-96) [FLAC]
George Harrison - All Things Must Pass (1970) (PBTHAL LP 24-96) [FLAC]
Dodał: Beatrix
Data: 04-04-2021
Rozmiar: 2.16 GB
Seed: 1
Peer: 0
Pobierz torrent

  • *
Głosów: 0
Kategoria: MUZYKA -> ZAGRANICZNA
Zaakceptował: nie wymagał akceptacji
Liczba pobrań: 2
Liczba komentarzy: 0
Ostatnia aktualizacja: 0000-00-00 00:00:00
OPIS:
George Harrison
All Things Must Pass (1970)
FLAC LOSSLESS 24bit-96kHz
PBTHAL Vinyl Rip


allmusic.com...

Without a doubt, George Harrison's first solo recording, originally issued as a triple album, is his best. Drawing on his backlog of unused compositions from the late Beatles era, Harrison crafted material that managed the rare feat of conveying spiritual mysticism without sacrificing his gifts for melody and grand, sweeping arrangements. Enhanced by Phil Spector's lush orchestral production and Harrison's own superb slide guitar, nearly every song is excellent: "Awaiting on You All," "Beware of Darkness," the Dylan collaboration "I'd Have You Anytime," "Isn't It a Pity," and the hit singles "My Sweet Lord" and "What Is Life" are just a few of the highlights. A very moving work, with a slight flaw: the jams that comprise the final third of the album are somewhat dispensable, and have probably only been played once or twice by most of the listeners who own this record. Those same jams, however, played by Eric Clapton, Carl Radle, Bobby Whitlock, and Jim Gordon (all of whom had just come off of touring as part of Delaney & Bonnie's band), proved to be of immense musical importance, precipitating the formation of Derek & the Dominos. Thus, they weren't a total dead end, and may actually be much more to the liking of the latter band's fans.


foobar2000 1.4.3 / Dynamic Range Meter 1.1.1
log date: 2021-03-15 08:25:56

--------------------------------------------------------------------------------
Analyzed: George Harrison / All Things Must Pass
--------------------------------------------------------------------------------

DR         Peak         RMS     Duration Track
--------------------------------------------------------------------------------
DR13      -2.48 dB   -18.61 dB      2:59 01-I'd Have You Anytime
DR12      -1.10 dB   -16.34 dB      4:43 02-My Sweet Lord
DR11      -2.27 dB   -15.13 dB      5:39 03-Wah-Wah
DR12      -0.96 dB   -16.97 dB      7:13 04-Isn't It A Pity (Version One)
DR12      -0.70 dB   -15.57 dB      4:25 05-What Is Life
DR13      -2.50 dB   -17.70 dB      3:35 06-If Not For You
DR12      -3.82 dB   -18.13 dB      3:10 07-Behind That Locked Door
DR12      -2.50 dB   -17.20 dB      5:00 08-Let It Down
DR12      -3.40 dB   -17.91 dB      2:55 09-Run Of The Mill
DR12      -0.70 dB   -16.64 dB      3:52 10-Beware Of Darkness
DR12      -5.49 dB   -20.65 dB      3:07 11-Apple Scruffs
DR13      -3.21 dB   -18.66 dB      3:53 12-Ballad Of Sir Frankie Crisp (Let It Roll)
DR11      -1.61 dB   -15.47 dB      2:51 13-Awaiting On You All
DR13      -2.00 dB   -17.73 dB      3:50 14-All Things Must Pass
DR13      -2.57 dB   -18.52 dB      4:59 15-I Dig Love
DR12      -1.65 dB   -16.02 dB      3:43 16-Art Of Dying
DR12      -2.89 dB   -19.71 dB      4:50 17-Isn't It A Pity (Version Two)
DR12      -2.84 dB   -17.18 dB      5:52 18-Hear Me Lord
DR12      -1.54 dB   -17.76 dB     11:16 19-Out Of The Blue
DR10      -5.85 dB   -17.93 dB      0:51 20-It's Johnny's Birthday
DR12      -0.70 dB   -15.61 dB      3:21 21-Plug Me In
DR11      -3.10 dB   -15.71 dB      8:07 22-I Remember Jeep
DR12      -0.71 dB   -15.25 dB      5:36 23-Thanks For The Pepperoni

Number of tracks:  23
Official DR value: DR12

Samplerate:        96000 Hz
Channels:          2
Bits per sample:   24
Bitrate:           3019 kbps
Codec:             FLAC

DETALE TORRENTA:[ Pokaż/Ukryj ]

Podobne pliki
George Harrison - Let It Roll Songs By George Harrison 2009
George Harrison - Let It Roll Songs By George Harrison 2009
George Michael - Faith (1987) (PBTHAL LP 24-96) [FLAC]
George Michael - Faith (1987) (PBTHAL LP 24-96) [FLAC]
George Thorogood & The Destroyers (1977) (PBTHAL LP 24-96) [FLAC]
George Thorogood & The Destroyers (1977) (PBTHAL LP 24-96) [FLAC]
Deep Purple - In Rock (1970) (UK PBTHAL LP 24-96) [FLAC]
Deep Purple - In Rock (1970) (UK PBTHAL LP 24-96) [FLAC]
The Doors - Morrison Hotel (1970) (PBTHAL LP 24-96) [FLAC]
The Doors - Morrison Hotel (1970) (PBTHAL LP 24-96) [FLAC]
Black Sabbath - Paranoid (1970) (UK PBTHAL LP 24-96) [FLAC]
Black Sabbath - Paranoid (1970) (UK PBTHAL LP 24-96) [FLAC]
Elton John - Tumbleweed Connection (1970) (PBTHAL LP 24-96) [FLAC]
Elton John - Tumbleweed Connection (1970) (PBTHAL LP 24-96) [FLAC]
Creedence Clearwater Revival - Cosmo's Factory (1970) (PBTHAL LP 24-96) [FLAC]
Creedence Clearwater Revival - Cosmo's Factory (1970) (PBTHAL LP 24-96) [FLAC]

Komentarze

Brak komentarzy

Zaloguj się aby skomentować