MENU

KATEGORIE

TOPLISTA

Torrent: Wybrzeże moskitów - The Mosquito Coast *2021* [S01E02] [1080p] [WEB] [x264] [DDP5.1 Atmos] [NTb] [Napisy PL]
Wybrzeże moskitów - The Mosquito Coast *2021* [S01E02] [1080p] [WEB] [x264] [DDP5.1 Atmos] [NTb] [Napisy PL]
Dodał: umezrorv
Data: 01-05-2021
Rozmiar: 4.12 GB
Seed: 1
Peer: 0
Pobierz torrent

  • *
Głosów: 0
Kategoria: TV / SERIALE -> ZAGRANICZNE
Zaakceptował: nie wymagał akceptacji
Liczba pobrań: 13
Liczba komentarzy: 0
Ostatnia aktualizacja: 0000-00-00 00:00:00
OPIS:


..::(Info)::..

Produkcja: USA
Gatunek: Przygodowy, Drama, Thriller
Twórca: Tom Bissell
Platforma: Apple TV+
Premiera: 30 kwietnia 2021

..::(Opis)::..

Wybrzeże Mosquito to serial telewizyjny stworzony przez Neila Crossa i Toma Bissella, oparty na książce Paula Therouxa pod tym samym tytułem. Premiera odbyła się w Apple TV + 30 kwietnia 2021 r. W serialu występują Justin Theroux i Melissa George w głównych rolach.

..::(Obsada)::..

Justin Theroux as Allie Fox
Melissa George as Margot, Allie's wife
Logan Polish as Dina, Allie and Margot's daughter
Gabriel Bateman as Charlie, Allie and Margot's son
Kimberly Elise as Jones, a mysterious government agent tracking Allie and his family.
James LeGros as Don Voorhees, an NSA agent and partner of Jones.
Ian Hart as Bill Lee

..::(Dane Techniczne)::..

Video
ID : 1
Format : AVC
Format/INFO : Advanced Video Codec
Format profile : High@L4
Format settings : CABAC / 4 Ref Frames
Format settings, CABAC : Yes
Format settings, Reference frames : 4 frames
Codec ID : V_MPEG4/ISO/AVC
Duration : 55 min 19 s
Bit rate : 9 896 kb/s
Width : 1 920 pixels
Height : 960 pixels
Display aspect ratio : 2.000
Frame rate mode : Constant
Frame rate : 23.976 (24000/1001) FPS
Color space : YUV
Chroma subsampling : 4:2:0
Bit depth : 8 bits
Scan type : Progressive
Bits/(Pixel*Frame) : 0.224
Stream size : 3.82 GiB (93%)
Default : Yes
Forced : No
Color range : Limited
Color primaries : BT.709
Transfer characteristics : BT.709
Matrix coefficients : BT.709

Audio
ID : 2
Format : E-AC-3 JOC
Format/INFO : Enhanced AC-3 with Joint Object Coding
Commercial name : Dolby Digital Plus with Dolby Atmos
Codec ID : A_EAC3
Duration : 55 min 19 s
Bit rate mode : Constant
Bit rate : 768 kb/s
Channel(s) : 6 channels
Channel layout : L R C LFE Ls Rs
Sampling rate : 48.0 kHz
Frame rate : 31.250 FPS (1536 SPF)
Compression mode : Lossy
Stream size : 304 MiB (7%)
Language : English
Service kind : Complete Main
Default : Yes
Forced : No
Complexity index : 16
Number of dynamic objects : 15
Bed channel count : 1 channel
Bed channel configuration : LFE

Text #1
ID : 3
Format : UTF-8
Codec ID : S_TEXT/UTF8
Codec ID/INFO : UTF-8 Plain Text
Duration : 54 min 18 s
Bit rate : 72 b/s
Count of elements : 625
Stream size : 28.7 KiB (0%)
Language : Arabic
Default : No
Forced : No

Text #2
ID : 4
Format : UTF-8
Codec ID : S_TEXT/UTF8
Codec ID/INFO : UTF-8 Plain Text
Duration : 54 min 18 s
Bit rate : 73 b/s
Count of elements : 610
Stream size : 29.1 KiB (0%)
Language : Bulgarian
Default : No
Forced : No

Text #3
ID : 5
Format : UTF-8
Codec ID : S_TEXT/UTF8
Codec ID/INFO : UTF-8 Plain Text
Duration : 54 min 18 s
Bit rate : 44 b/s
Count of elements : 625
Stream size : 17.5 KiB (0%)
Title : Simplified Mandarin
Language : Chinese
Default : No
Forced : No

Text #4
ID : 6
Format : UTF-8
Codec ID : S_TEXT/UTF8
Codec ID/INFO : UTF-8 Plain Text
Duration : 54 min 21 s
Bit rate : 43 b/s
Count of elements : 626
Stream size : 17.2 KiB (0%)
Title : Traditional Mandarin
Language : Chinese
Default : No
Forced : No

Text #5
ID : 7
Format : UTF-8
Codec ID : S_TEXT/UTF8
Codec ID/INFO : UTF-8 Plain Text
Duration : 54 min 21 s
Bit rate : 45 b/s
Count of elements : 616
Stream size : 18.3 KiB (0%)
Language : Czech
Default : No
Forced : No

Text #6
ID : 8
Format : UTF-8
Codec ID : S_TEXT/UTF8
Codec ID/INFO : UTF-8 Plain Text
Duration : 54 min 18 s
Bit rate : 44 b/s
Count of elements : 613
Stream size : 17.7 KiB (0%)
Language : Danish
Default : No
Forced : No

Text #7
ID : 9
Format : UTF-8
Codec ID : S_TEXT/UTF8
Codec ID/INFO : UTF-8 Plain Text
Duration : 54 min 21 s
Bit rate : 43 b/s
Count of elements : 603
Stream size : 17.4 KiB (0%)
Language : German
Default : No
Forced : No

Text #8
ID : 10
Format : UTF-8
Codec ID : S_TEXT/UTF8
Codec ID/INFO : UTF-8 Plain Text
Duration : 54 min 21 s
Bit rate : 83 b/s
Count of elements : 594
Stream size : 33.4 KiB (0%)
Language : Greek
Default : No
Forced : No

Text #9
ID : 11
Format : UTF-8
Codec ID : S_TEXT/UTF8
Codec ID/INFO : UTF-8 Plain Text
Duration : 50 min 37 s
Bit rate : 54 b/s
Count of elements : 611
Stream size : 20.2 KiB (0%)
Language : English
Default : No
Forced : No

Text #10
ID : 12
Format : UTF-8
Codec ID : S_TEXT/UTF8
Codec ID/INFO : UTF-8 Plain Text
Duration : 50 min 37 s
Bit rate : 55 b/s
Count of elements : 615
Stream size : 20.6 KiB (0%)
Language : English
Default : No
Forced : No

Text #11
ID : 13
Format : UTF-8
Codec ID : S_TEXT/UTF8
Codec ID/INFO : UTF-8 Plain Text
Duration : 52 min 57 s
Bit rate : 58 b/s
Count of elements : 690
Stream size : 22.6 KiB (0%)
Title : SDH
Language : English
Default : No
Forced : No

Text #12
ID : 14
Format : UTF-8
Codec ID : S_TEXT/UTF8
Codec ID/INFO : UTF-8 Plain Text
Duration : 54 min 21 s
Bit rate : 50 b/s
Count of elements : 623
Stream size : 20.1 KiB (0%)
Title : Latin America
Language : Spanish
Default : No
Forced : No

Text #13
ID : 15
Format : UTF-8
Codec ID : S_TEXT/UTF8
Codec ID/INFO : UTF-8 Plain Text
Duration : 54 min 21 s
Bit rate : 51 b/s
Count of elements : 621
Stream size : 20.5 KiB (0%)
Title : Spain
Language : Spanish
Default : No
Forced : No

Text #14
ID : 16
Format : UTF-8
Codec ID : S_TEXT/UTF8
Codec ID/INFO : UTF-8 Plain Text
Duration : 54 min 18 s
Bit rate : 44 b/s
Count of elements : 586
Stream size : 17.8 KiB (0%)
Language : Estonian
Default : No
Forced : No

Text #15
ID : 17
Format : UTF-8
Codec ID : S_TEXT/UTF8
Codec ID/INFO : UTF-8 Plain Text
Duration : 54 min 18 s
Bit rate : 44 b/s
Count of elements : 597
Stream size : 17.6 KiB (0%)
Language : Finnish
Default : No
Forced : No

Text #16
ID : 18
Format : UTF-8
Codec ID : S_TEXT/UTF8
Codec ID/INFO : UTF-8 Plain Text
Duration : 54 min 21 s
Bit rate : 42 b/s
Count of elements : 646
Stream size : 17.1 KiB (0%)
Title : Canada
Language : French
Default : No
Forced : No

Text #17
ID : 19
Format : UTF-8
Codec ID : S_TEXT/UTF8
Codec ID/INFO : UTF-8 Plain Text
Duration : 53 min 40 s
Bit rate : 43 b/s
Count of elements : 646
Stream size : 17.1 KiB (0%)
Title : France
Language : French
Default : No
Forced : No

Text #18
ID : 20
Format : UTF-8
Codec ID : S_TEXT/UTF8
Codec ID/INFO : UTF-8 Plain Text
Duration : 54 min 18 s
Bit rate : 66 b/s
Count of elements : 625
Stream size : 26.5 KiB (0%)
Language : Hebrew
Default : No
Forced : No

Text #19
ID : 21
Format : UTF-8
Codec ID : S_TEXT/UTF8
Codec ID/INFO : UTF-8 Plain Text
Duration : 54 min 21 s
Bit rate : 120 b/s
Count of elements : 626
Stream size : 48.0 KiB (0%)
Language : Hindi
Default : No
Forced : No

Text #20
ID : 22
Format : UTF-8
Codec ID : S_TEXT/UTF8
Codec ID/INFO : UTF-8 Plain Text
Duration : 54 min 21 s
Bit rate : 47 b/s
Count of elements : 623
Stream size : 19.0 KiB (0%)
Language : Hungarian
Default : No
Forced : No

Text #21
ID : 23
Format : UTF-8
Codec ID : S_TEXT/UTF8
Codec ID/INFO : UTF-8 Plain Text
Duration : 54 min 18 s
Bit rate : 49 b/s
Count of elements : 622
Stream size : 19.8 KiB (0%)
Language : Indonesian
Default : No
Forced : No

Text #22
ID : 24
Format : UTF-8
Codec ID : S_TEXT/UTF8
Codec ID/INFO : UTF-8 Plain Text
Duration : 54 min 14 s
Bit rate : 49 b/s
Count of elements : 624
Stream size : 19.8 KiB (0%)
Language : Italian
Default : No
Forced : No

Text #23
ID : 25
Format : UTF-8
Codec ID : S_TEXT/UTF8
Codec ID/INFO : UTF-8 Plain Text
Duration : 54 min 21 s
Bit rate : 42 b/s
Count of elements : 645
Stream size : 16.7 KiB (0%)
Language : Japanese
Default : No
Forced : No

Text #24
ID : 26
Format : UTF-8
Codec ID : S_TEXT/UTF8
Codec ID/INFO : UTF-8 Plain Text
Duration : 54 min 21 s
Bit rate : 50 b/s
Count of elements : 625
Stream size : 20.0 KiB (0%)
Language : Korean
Default : No
Forced : No

Text #25
ID : 27
Format : UTF-8
Codec ID : S_TEXT/UTF8
Codec ID/INFO : UTF-8 Plain Text
Duration : 54 min 18 s
Bit rate : 46 b/s
Count of elements : 619
Stream size : 18.4 KiB (0%)
Language : Lithuanian
Default : No
Forced : No

Text #26
ID : 28
Format : UTF-8
Codec ID : S_TEXT/UTF8
Codec ID/INFO : UTF-8 Plain Text
Duration : 54 min 18 s
Bit rate : 51 b/s
Count of elements : 616
Stream size : 20.3 KiB (0%)
Language : Latvian
Default : No
Forced : No

Text #27
ID : 29
Format : UTF-8
Codec ID : S_TEXT/UTF8
Codec ID/INFO : UTF-8 Plain Text
Duration : 54 min 18 s
Bit rate : 49 b/s
Count of elements : 622
Stream size : 19.9 KiB (0%)
Language : Malay
Default : No
Forced : No

Text #28
ID : 30
Format : UTF-8
Codec ID : S_TEXT/UTF8
Codec ID/INFO : UTF-8 Plain Text
Duration : 54 min 18 s
Bit rate : 44 b/s
Count of elements : 589
Stream size : 17.7 KiB (0%)
Language : Dutch
Default : No
Forced : No

Text #29
ID : 31
Format : UTF-8
Codec ID : S_TEXT/UTF8
Codec ID/INFO : UTF-8 Plain Text
Duration : 54 min 18 s
Bit rate : 43 b/s
Count of elements : 512
Stream size : 17.2 KiB (0%)
Language : Norwegian
Default : No
Forced : No

Text #30
ID : 32
Format : UTF-8
Codec ID : S_TEXT/UTF8
Codec ID/INFO : UTF-8 Plain Text
Duration : 54 min 21 s
Bit rate : 45 b/s
Count of elements : 609
Stream size : 18.1 KiB (0%)
Language : Polish
Default : No
Forced : No

Text #31
ID : 33
Format : UTF-8
Codec ID : S_TEXT/UTF8
Codec ID/INFO : UTF-8 Plain Text
Duration : 54 min 21 s
Bit rate : 49 b/s
Count of elements : 621
Stream size : 19.6 KiB (0%)
Language : Portuguese
Default : No
Forced : No

Text #32
ID : 34
Format : UTF-8
Codec ID : S_TEXT/UTF8
Codec ID/INFO : UTF-8 Plain Text
Duration : 54 min 18 s
Bit rate : 45 b/s
Count of elements : 617
Stream size : 18.2 KiB (0%)
Title : Brazil
Language : Portuguese
Default : No
Forced : No

Text #33
ID : 35
Format : UTF-8
Codec ID : S_TEXT/UTF8
Codec ID/INFO : UTF-8 Plain Text
Duration : 54 min 21 s
Bit rate : 75 b/s
Count of elements : 646
Stream size : 30.1 KiB (0%)
Language : Russian
Default : No
Forced : No

Text #34
ID : 36
Format : UTF-8
Codec ID : S_TEXT/UTF8
Codec ID/INFO : UTF-8 Plain Text
Duration : 54 min 21 s
Bit rate : 47 b/s
Count of elements : 617
Stream size : 18.8 KiB (0%)
Language : Slovak
Default : No
Forced : No

Text #35
ID : 37
Format : UTF-8
Codec ID : S_TEXT/UTF8
Codec ID/INFO : UTF-8 Plain Text
Duration : 54 min 18 s
Bit rate : 39 b/s
Count of elements : 614
Stream size : 15.6 KiB (0%)
Language : Slovenian
Default : No
Forced : No

Text #36
ID : 38
Format : UTF-8
Codec ID : S_TEXT/UTF8
Codec ID/INFO : UTF-8 Plain Text
Duration : 54 min 18 s
Bit rate : 44 b/s
Count of elements : 604
Stream size : 17.8 KiB (0%)
Language : Swedish
Default : No
Forced : No

Text #37
ID : 39
Format : UTF-8
Codec ID : S_TEXT/UTF8
Codec ID/INFO : UTF-8 Plain Text
Duration : 54 min 18 s
Bit rate : 159 b/s
Count of elements : 625
Stream size : 63.3 KiB (0%)
Language : Tamil
Default : No
Forced : No

Text #38
ID : 40
Format : UTF-8
Codec ID : S_TEXT/UTF8
Codec ID/INFO : UTF-8 Plain Text
Duration : 54 min 18 s
Bit rate : 133 b/s
Count of elements : 624
Stream size : 53.3 KiB (0%)
Language : Telugu
Default : No
Forced : No

Text #39
ID : 41
Format : UTF-8
Codec ID : S_TEXT/UTF8
Codec ID/INFO : UTF-8 Plain Text
Duration : 54 min 18 s
Bit rate : 123 b/s
Count of elements : 624
Stream size : 49.2 KiB (0%)
Language : Thai
Default : No
Forced : No

Text #40
ID : 42
Format : UTF-8
Codec ID : S_TEXT/UTF8
Codec ID/INFO : UTF-8 Plain Text
Duration : 54 min 18 s
Bit rate : 51 b/s
Count of elements : 621
Stream size : 20.5 KiB (0%)
Language : Turkish
Default : No
Forced : No

Text #41
ID : 43
Format : UTF-8
Codec ID : S_TEXT/UTF8
Codec ID/INFO : UTF-8 Plain Text
Duration : 54 min 21 s
Bit rate : 74 b/s
Count of elements : 624
Stream size : 29.8 KiB (0%)
Language : Ukrainian
Default : No
Forced : No

Text #42
ID : 44
Format : UTF-8
Codec ID : S_TEXT/UTF8
Codec ID/INFO : UTF-8 Plain Text
Duration : 54 min 21 s
Bit rate : 63 b/s
Count of elements : 624
Stream size : 25.4 KiB (0%)
Language : Vietnamese
Default : No
Forced : No

Text #43
ID : 45
Format : UTF-8
Codec ID : S_TEXT/UTF8
Codec ID/INFO : UTF-8 Plain Text
Duration : 54 min 21 s
Bit rate : 44 b/s
Count of elements : 626
Stream size : 17.5 KiB (0%)
Title : Cantonese
Language : Chinese
Default : No
Forced : No
DETALE TORRENTA:[ Pokaż/Ukryj ]

Podobne pliki
Wybrzeże moskitów - The Mosquito Coast *2021* [S01E01] [1080p] [WEB] [x264] [DDP5.1 Atmos] [NTb] [Napisy PL]
Wybrzeże moskitów - The Mosquito Coast *2021* [S01E01] [1080p] [WEB] [x264] [DDP5.1 Atmos] [NTb] [Napisy PL]
WYBRZEŻE MOSKITÓW - THE MOSQUITO COAST *2021* [720P] [SEZON 1] [E01-E02] [H264] [WEB-DL] [AC-3] [NAPISY-PL]
WYBRZEŻE MOSKITÓW - THE MOSQUITO COAST *2021* [720P] [SEZON 1] [E01-E02] [H264] [WEB-DL] [AC-3] [NAPISY-PL]
Wybrzeże Moskitów - The Mosquito Coast *1986* [DVDRip.RMVB] [Lektor PL]
Wybrzeże Moskitów - The Mosquito Coast *1986* [DVDRip.RMVB] [Lektor PL]
Wybrzeże Moskitów - The Mosquito Coast *1986* [DVDRip RMVB] [Lektor PL]
Wybrzeże Moskitów - The Mosquito Coast *1986* [DVDRip RMVB] [Lektor PL]
Wybrzeże moskitów - The Mosquito Coast (1986) [480p] [BRRip] [XviD] [AC3-LTN] [Lektor PL]
Wybrzeże moskitów - The Mosquito Coast (1986) [480p] [BRRip] [XviD] [AC3-LTN] [Lektor PL]
Wybrzeże moskitów / The Mosquito Coast (1986) [BRRip] [720p.XviD] [AC3-LTN] [Lektor PL] [avi] [FIONA9]
Wybrzeże moskitów / The Mosquito Coast (1986) [BRRip] [720p.XviD] [AC3-LTN] [Lektor PL] [avi]  [FIONA9]
Big Shot- Drużyna *2021* [S01E02] [1080p.DSNP.WEBRip.DDP5.1.Atmos.x264-NOGRP] [ENG] [Napisy PL] [Alusia]
Big Shot- Drużyna *2021* [S01E02] [1080p.DSNP.WEBRip.DDP5.1.Atmos.x264-NOGRP] [ENG] [Napisy PL] [Alusia]
WandaVision S01E02 [1080p.DSNP.WEBRip.DDP5.1.Atmos.x264-CM] [ENG] [MULTi.Sub: ENG]
WandaVision S01E02 [1080p.DSNP.WEBRip.DDP5.1.Atmos.x264-CM] [ENG] [MULTi.Sub: ENG]

Komentarze

Brak komentarzy

Zaloguj się aby skomentować