MENU

KATEGORIE

TOPLISTA

Torrent: Selena: The Series *2020* [S02] [1080p] [WEB] [x264] [DDP5.1 Atmos] [MRCS] [Napisy PL]
Selena: The Series *2020* [S02] [1080p] [WEB] [x264] [DDP5.1 Atmos] [MRCS] [Napisy PL]
Dodał: umezrorv
Data: 04-05-2021
Rozmiar: 11.21 GB
Seed: 1
Peer: 0
Pobierz torrent

  • *
Głosów: 0
Kategoria: TV / SERIALE -> ZAGRANICZNE
Zaakceptował: nie wymagał akceptacji
Liczba pobrań: 2
Liczba komentarzy: 0
Ostatnia aktualizacja: 0000-00-00 00:00:00
OPIS:


..::(Info)::..

Produkcja: USA
Gatunek: Biograficzny, Dramat
Twórca: Moisés Zamora
Platforma: Netflix
Premiera: 4 grudnia 2020

..::(Opis)::..

Selena, piosenkarka nurtu tejano o meksykańsko-amerykańskich korzeniach, dorasta i zdaje sobie sprawę, że musi być gotowa na wiele wyrzeczeń w imię miłości i muzyki.

..::(Obsada)::..

Christian Serratos as Selena
Madison Taylor Baez as Young Selena
Gabriel Chavarria as A.B. Quintanilla
Juan Martinez as Young A.B.
Ricardo Chavira as Abraham Quintanilla
Brandol Ruiz as Young Abraham
Noemi Gonzalez as Suzette Quintanilla
Daniela Estrada as Young Suzette
Seidy López as Marcella Quintanilla
Aneasa Yacoub as Young Marcella

..::(Dane Techniczne)::..

Video
ID : 1
Format : AVC
Format/INFO : Advanced Video Codec
Format profile : Main@L4
Format settings : CABAC / 3 Ref Frames
Format settings, CABAC : Yes
Format settings, Reference frames : 3 frames
Codec ID : V_MPEG4/ISO/AVC
Duration : 40 min 26 s
Bit rate mode : Variable
Bit rate : 5 800 kb/s
Maximum bit rate : 8 700 kb/s
Width : 1 920 pixels
Height : 1 080 pixels
Display aspect ratio : 16:9
Frame rate mode : Constant
Frame rate : 23.976 (24000/1001) FPS
Color space : YUV
Chroma subsampling : 4:2:0
Bit depth : 8 bits
Scan type : Progressive
Bits/(Pixel*Frame) : 0.117
Stream size : 1.60 GiB (88%)
Writing library : x264 core 148 r2722 1b0121b
Encoding settings : cabac=1 / ref=3 / deblock=1:0:0 / analyse=0x1:0x111 / me=umh / subme=10 / psy=1 / psy_rd=1.00:0.00 / mixed_ref=1 / me_range=24 / chroma_me=1 / trellis=2 / 8x8dct=0 / cqm=0 / deadzone=21,11 / fast_pskip=1 / chroma_qp_offset=-2 / threads=8 / lookahead_threads=1 / sliced_threads=0 / nr=0 / decimate=1 / interlaced=0 / bluray_compat=0 / stitchable=1 / constrained_intra=0 / bframes=2 / b_pyramid=0 / b_adapt=2 / b_bias=0 / direct=3 / weightb=1 / open_gop=0 / weightp=2 / keyint=250 / keyint_min=23 / scenecut=0 / intra_refresh=0 / rc_lookahead=48 / rc=2pass / mbtree=1 / bitrate=5800 / ratetol=1.0 / qcomp=0.50 / qpmin=6 / qpmax=51 / qpstep=4 / cplxblur=20.0 / qblur=0.5 / vbv_maxrate=8700 / vbv_bufsize=11600 / nal_hrd=vbr / filler=0 / ip_ratio=1.40 / aq=1:1.00
Default : Yes
Forced : No

Audio
ID : 2
Format : E-AC-3 JOC
Format/INFO : Enhanced AC-3 with Joint Object Coding
Commercial name : Dolby Digital Plus with Dolby Atmos
Codec ID : A_EAC3
Duration : 40 min 26 s
Bit rate mode : Constant
Bit rate : 768 kb/s
Channel(s) : 6 channels
Channel layout : L R C LFE Ls Rs
Sampling rate : 48.0 kHz
Frame rate : 31.250 FPS (1536 SPF)
Compression mode : Lossy
Stream size : 222 MiB (12%)
Language : English
Service kind : Complete Main
Default : Yes
Forced : No
Complexity index : 16
Number of dynamic objects : 15
Bed channel count : 1 channel
Bed channel configuration : LFE

Text #1
ID : 3
Format : UTF-8
Codec ID : S_TEXT/UTF8
Codec ID/INFO : UTF-8 Plain Text
Duration : 37 min 44 s
Bit rate : 70 b/s
Count of elements : 579
Stream size : 19.4 KiB (0%)
Title : English (SDH)
Language : English
Default : No
Forced : No

Text #2
ID : 4
Format : UTF-8
Codec ID : S_TEXT/UTF8
Codec ID/INFO : UTF-8 Plain Text
Duration : 32 min 56 s
Bit rate : 13 b/s
Count of elements : 117
Stream size : 3.26 KiB (0%)
Title : English (Forced)
Language : English
Default : Yes
Forced : Yes

Text #3
ID : 5
Format : UTF-8
Codec ID : S_TEXT/UTF8
Codec ID/INFO : UTF-8 Plain Text
Duration : 40 min 2 s
Bit rate : 101 b/s
Count of elements : 497
Stream size : 29.9 KiB (0%)
Title : العربية
Language : Arabic
Default : No
Forced : No

Text #4
ID : 6
Format : UTF-8
Codec ID : S_TEXT/UTF8
Codec ID/INFO : UTF-8 Plain Text
Duration : 40 min 2 s
Bit rate : 50 b/s
Count of elements : 493
Stream size : 14.8 KiB (0%)
Title : Čeština
Language : Czech
Default : No
Forced : No

Text #5
ID : 7
Format : UTF-8
Codec ID : S_TEXT/UTF8
Codec ID/INFO : UTF-8 Plain Text
Duration : 40 min 2 s
Bit rate : 48 b/s
Count of elements : 438
Stream size : 14.3 KiB (0%)
Title : Dansk
Language : Danish
Default : No
Forced : No

Text #6
ID : 8
Format : UTF-8
Codec ID : S_TEXT/UTF8
Codec ID/INFO : UTF-8 Plain Text
Duration : 40 min 2 s
Bit rate : 52 b/s
Count of elements : 489
Stream size : 15.3 KiB (0%)
Title : Deutsch
Language : German
Default : No
Forced : No

Text #7
ID : 9
Format : UTF-8
Codec ID : S_TEXT/UTF8
Codec ID/INFO : UTF-8 Plain Text
Duration : 40 min 2 s
Bit rate : 89 b/s
Count of elements : 510
Stream size : 26.3 KiB (0%)
Title : Ελληνικά
Language : Greek
Default : No
Forced : No

Text #8
ID : 10
Format : UTF-8
Codec ID : S_TEXT/UTF8
Codec ID/INFO : UTF-8 Plain Text
Duration : 39 min 58 s
Bit rate : 61 b/s
Count of elements : 546
Stream size : 18.1 KiB (0%)
Title : Español (SDH)
Language : Spanish
Default : No
Forced : No

Text #9
ID : 11
Format : UTF-8
Codec ID : S_TEXT/UTF8
Codec ID/INFO : UTF-8 Plain Text
Duration : 40 min 2 s
Bit rate : 41 b/s
Count of elements : 375
Stream size : 12.3 KiB (0%)
Title : Español
Language : Spanish
Default : No
Forced : No

Text #10
ID : 12
Format : UTF-8
Codec ID : S_TEXT/UTF8
Codec ID/INFO : UTF-8 Plain Text
Duration : 39 min 58 s
Bit rate : 36 b/s
Count of elements : 399
Stream size : 10.7 KiB (0%)
Title : Español
Language : Spanish
Default : No
Forced : No

Text #11
ID : 13
Format : UTF-8
Codec ID : S_TEXT/UTF8
Codec ID/INFO : UTF-8 Plain Text
Duration : 40 min 2 s
Bit rate : 50 b/s
Count of elements : 486
Stream size : 14.8 KiB (0%)
Title : Suomi
Language : Finnish
Default : No
Forced : No

Text #12
ID : 14
Format : UTF-8
Codec ID : S_TEXT/UTF8
Codec ID/INFO : UTF-8 Plain Text
Duration : 40 min 2 s
Bit rate : 54 b/s
Count of elements : 489
Stream size : 15.9 KiB (0%)
Title : Français
Language : French
Default : No
Forced : No

Text #13
ID : 15
Format : UTF-8
Codec ID : S_TEXT/UTF8
Codec ID/INFO : UTF-8 Plain Text
Duration : 39 min 58 s
Bit rate : 89 b/s
Count of elements : 506
Stream size : 26.1 KiB (0%)
Title : עברית
Language : Hebrew
Default : No
Forced : No

Text #14
ID : 16
Format : UTF-8
Codec ID : S_TEXT/UTF8
Codec ID/INFO : UTF-8 Plain Text
Duration : 40 min 2 s
Bit rate : 46 b/s
Count of elements : 491
Stream size : 13.7 KiB (0%)
Title : Hrvatski
Language : Croatian
Default : No
Forced : No

Text #15
ID : 17
Format : UTF-8
Codec ID : S_TEXT/UTF8
Codec ID/INFO : UTF-8 Plain Text
Duration : 40 min 2 s
Bit rate : 53 b/s
Count of elements : 494
Stream size : 15.6 KiB (0%)
Title : Magyar
Language : Hungarian
Default : No
Forced : No

Text #16
ID : 18
Format : UTF-8
Codec ID : S_TEXT/UTF8
Codec ID/INFO : UTF-8 Plain Text
Duration : 40 min 2 s
Bit rate : 52 b/s
Count of elements : 505
Stream size : 15.4 KiB (0%)
Title : Bahasa Indonesia
Language : Indonesian
Default : No
Forced : No

Text #17
ID : 19
Format : UTF-8
Codec ID : S_TEXT/UTF8
Codec ID/INFO : UTF-8 Plain Text
Duration : 40 min 2 s
Bit rate : 52 b/s
Count of elements : 482
Stream size : 15.4 KiB (0%)
Title : Italiano
Language : Italian
Default : No
Forced : No

Text #18
ID : 20
Format : UTF-8
Codec ID : S_TEXT/UTF8
Codec ID/INFO : UTF-8 Plain Text
Duration : 40 min 2 s
Bit rate : 56 b/s
Count of elements : 537
Stream size : 16.6 KiB (0%)
Title : 日本語
Language : Japanese
Default : No
Forced : No

Text #19
ID : 21
Format : UTF-8
Codec ID : S_TEXT/UTF8
Codec ID/INFO : UTF-8 Plain Text
Duration : 40 min 4 s
Bit rate : 71 b/s
Count of elements : 546
Stream size : 21.0 KiB (0%)
Title : 한국어
Language : Korean
Default : No
Forced : No

Text #20
ID : 22
Format : UTF-8
Codec ID : S_TEXT/UTF8
Codec ID/INFO : UTF-8 Plain Text
Duration : 40 min 2 s
Bit rate : 53 b/s
Count of elements : 495
Stream size : 15.7 KiB (0%)
Title : Bahasa Malaysia
Language : Malay
Default : No
Forced : No

Text #21
ID : 23
Format : UTF-8
Codec ID : S_TEXT/UTF8
Codec ID/INFO : UTF-8 Plain Text
Duration : 40 min 2 s
Bit rate : 48 b/s
Count of elements : 491
Stream size : 14.3 KiB (0%)
Title : Norsk Bokmål
Language : Norwegian Bokmal
Default : No
Forced : No

Text #22
ID : 24
Format : UTF-8
Codec ID : S_TEXT/UTF8
Codec ID/INFO : UTF-8 Plain Text
Duration : 40 min 2 s
Bit rate : 50 b/s
Count of elements : 449
Stream size : 14.7 KiB (0%)
Title : Nederlands
Language : Dutch
Default : No
Forced : No

Text #23
ID : 25
Format : UTF-8
Codec ID : S_TEXT/UTF8
Codec ID/INFO : UTF-8 Plain Text
Duration : 40 min 2 s
Bit rate : 51 b/s
Count of elements : 491
Stream size : 15.2 KiB (0%)
Title : Polski
Language : Polish
Default : No
Forced : No

Text #24
ID : 26
Format : UTF-8
Codec ID : S_TEXT/UTF8
Codec ID/INFO : UTF-8 Plain Text
Duration : 40 min 4 s
Bit rate : 51 b/s
Count of elements : 489
Stream size : 15.2 KiB (0%)
Title : Português
Language : Portuguese
Default : No
Forced : No

Text #25
ID : 27
Format : UTF-8
Codec ID : S_TEXT/UTF8
Codec ID/INFO : UTF-8 Plain Text
Duration : 40 min 2 s
Bit rate : 52 b/s
Count of elements : 491
Stream size : 15.4 KiB (0%)
Title : Português (Brasil)
Language : Portuguese
Default : No
Forced : No

Text #26
ID : 28
Format : UTF-8
Codec ID : S_TEXT/UTF8
Codec ID/INFO : UTF-8 Plain Text
Duration : 39 min 59 s
Bit rate : 57 b/s
Count of elements : 494
Stream size : 16.9 KiB (0%)
Title : Română
Language : Romanian
Default : No
Forced : No

Text #27
ID : 29
Format : UTF-8
Codec ID : S_TEXT/UTF8
Codec ID/INFO : UTF-8 Plain Text
Duration : 40 min 2 s
Bit rate : 86 b/s
Count of elements : 499
Stream size : 25.3 KiB (0%)
Title : Русский
Language : Russian
Default : No
Forced : No

Text #28
ID : 30
Format : UTF-8
Codec ID : S_TEXT/UTF8
Codec ID/INFO : UTF-8 Plain Text
Duration : 40 min 2 s
Bit rate : 52 b/s
Count of elements : 434
Stream size : 15.4 KiB (0%)
Title : Svenska
Language : Swedish
Default : No
Forced : No

Text #29
ID : 31
Format : UTF-8
Codec ID : S_TEXT/UTF8
Codec ID/INFO : UTF-8 Plain Text
Duration : 40 min 2 s
Bit rate : 136 b/s
Count of elements : 509
Stream size : 40.1 KiB (0%)
Title : ไทย
Language : Thai
Default : No
Forced : No

Text #30
ID : 32
Format : UTF-8
Codec ID : S_TEXT/UTF8
Codec ID/INFO : UTF-8 Plain Text
Duration : 40 min 4 s
Bit rate : 53 b/s
Count of elements : 493
Stream size : 15.6 KiB (0%)
Title : Türkçe
Language : Turkish
Default : No
Forced : No

Text #31
ID : 33
Format : UTF-8
Codec ID : S_TEXT/UTF8
Codec ID/INFO : UTF-8 Plain Text
Duration : 40 min 2 s
Bit rate : 78 b/s
Count of elements : 458
Stream size : 23.1 KiB (0%)
Title : Tiếng Việt
Language : Vietnamese
Default : No
Forced : No

Text #32
ID : 34
Format : UTF-8
Codec ID : S_TEXT/UTF8
Codec ID/INFO : UTF-8 Plain Text
Duration : 40 min 2 s
Bit rate : 60 b/s
Count of elements : 507
Stream size : 17.7 KiB (0%)
Title : 中文(简体)
Language : Chinese
Default : No
Forced : No

Text #33
ID : 35
Format : UTF-8
Codec ID : S_TEXT/UTF8
Codec ID/INFO : UTF-8 Plain Text
Duration : 40 min 2 s
Bit rate : 60 b/s
Count of elements : 513
Stream size : 17.8 KiB (0%)
Title : 中文(繁體)
Language : Chinese
Default : No
Forced : No
DETALE TORRENTA:[ Pokaż/Ukryj ]

Podobne pliki
Godzilla.vs.Kong *2021* [1080p] [HMAX] [WEBRip] [DDP5.1.Atmos.] [x264-MRCS] [Oficjalne Napisy PL Grupa Hatak] [zibi6248]
Godzilla.vs.Kong *2021* [1080p] [HMAX] [WEBRip] [DDP5.1.Atmos.] [x264-MRCS] [Oficjalne Napisy PL Grupa Hatak] [zibi6248]
Godzilla.vs.Kong *2021* [1080p] [HMAX] [WEBRip] [DDP5.1.Atmos.] [x264-MRCS] [ENG] [zibi6248]
Godzilla.vs.Kong *2021* [1080p] [HMAX] [WEBRip] [DDP5.1.Atmos.] [x264-MRCS] [ENG] [zibi6248]
Betaal *2020* [S01] [1080p] [NF] [WEB DL] [DDP5.1 Atmos] [x264 Telly] [Napisy PL]
Betaal *2020* [S01] [1080p] [NF] [WEB DL] [DDP5.1 Atmos] [x264 Telly] [Napisy PL]
Enola.Holmes *2020* [MULTi.SUB.] [1080p] [NF] [WEBRip] [DDP5.1] [Atmos] [x264-CM] [Napisy PL] [zibi6248]
Enola.Holmes *2020* [MULTi.SUB.] [1080p] [NF] [WEBRip] [DDP5.1] [Atmos] [x264-CM] [Napisy PL]  [zibi6248]
Niebo o północy - The Midnight Sky *2020* [MULTi.SUB] [1080p] [NF] [WEBRip] [DDP5.1.Atmos] [x264-iKA] [Napisy PL] [zibi6248]
Niebo o północy - The Midnight Sky *2020* [MULTi.SUB] [1080p] [NF] [WEBRip] [DDP5.1.Atmos] [x264-iKA] [Napisy PL] [zibi6248]
Chrzestna - Godmothered *2020* [MULTi.SUB.] [1080p] [DSNP] [WEBRip] [DDP5.1.Atmos] [x264-NOGRP] [Napisy PL] [zibi6248]
Chrzestna - Godmothered *2020* [MULTi.SUB.] [1080p] [DSNP] [WEBRip] [DDP5.1.Atmos] [x264-NOGRP] [Napisy PL] [zibi6248]
The Little Things *2021* [1080p] [AMZN] [WEBRip] [DDP5.1.Atmos] [x264-NTG] [Napisy PL] [zibi6248]
The Little Things *2021* [1080p] [AMZN] [WEBRip] [DDP5.1.Atmos] [x264-NTG] [Napisy PL] [zibi6248]
Servant *2021* [S02E01] [1080p] [ATVP] [WEB] [x264] [DDP5.1 Atmos] [GLHF] [Napisy PL]
 Servant *2021* [S02E01] [1080p] [ATVP] [WEB] [x264] [DDP5.1 Atmos] [GLHF] [Napisy PL]

Komentarze

Brak komentarzy

Zaloguj się aby skomentować