MENU

KATEGORIE

TOPLISTA

Torrent: The Flying Burrito Brothers - The Gilded Palace Of Sin (1969) (PBTHAL LP 24-96) [FLAC]
The Flying Burrito Brothers - The Gilded Palace Of Sin (1969) (PBTHAL LP 24-96) [FLAC]
Dodał: Beatrix
Data: 10-06-2021
Rozmiar: 789.77 MB
Seed: 1
Peer: 0
Pobierz torrent

  • *
Głosów: 0
Kategoria: MUZYKA -> ZAGRANICZNA
Zaakceptował: nie wymagał akceptacji
Liczba pobrań: 1
Liczba komentarzy: 0
Ostatnia aktualizacja: 0000-00-00 00:00:00
OPIS:
The Flying Burrito Brothers
The Gilded Palace Of Sin (1969)
FLAC LOSSLESS 24bit-96kHz
PBTHAL Vinyl Rip


Not my rip. Any questions about the
eqipment used can be found in the
lineage text.


allmusic.com...

By 1969, Gram Parsons had already built the foundation of the country-rock movement through his work with the International Submarine Band and the Byrds, but his first album with the Flying Burrito Brothers, The Gilded Palace of Sin, was where he revealed the full extent of his talents, and it ranks among the finest and most influential albums the genre would ever produce. As a songwriter, Parsons delivered some of his finest work on this set; "Hot Burrito No. 1" and "Hot Burrito No. 2" both blend the hurt of classic country weepers with a contemporary sense of anger, jealousy, and confusion, and "Sin City" can either be seen as a parody or a sincere meditation on a city gone mad, and it hits home in both contexts. Parsons was rarely as strong as a vocalist as he was here, and his covers of "Dark End of the Street" and "Do Right Woman" prove just how much he had been learning from R&B as well as C&W. And Parsons was fortunate enough to be working with a band who truly added to his vision, rather than simply backing him up; the distorted swoops of Sneaky Pete Kleinow's fuzztone steel guitar provides a perfect bridge between country and psychedelic rock, and Chris Hillman's strong and supportive harmony vocals blend flawlessly with Parsons' (and he also proved to be a valuable songwriting partner, collaborating on a number of great tunes with Gram). While The Gilded Palace of Sin barely registered on the pop culture radar in 1969, literally dozens of bands (the Eagles most notable among them) would find inspiration in this music and enjoy far greater success. But no one ever brought rock and country together quite like the Flying Burrito Brothers, and this album remains their greatest accomplishment.


foobar2000 1.4.3 / Dynamic Range Meter 1.1.1
log date: 2021-03-29 19:26:39

--------------------------------------------------------------------------------
Analyzed: The Flying Burrito Brothers / The Gilded Palace Of Sin
--------------------------------------------------------------------------------

DR         Peak         RMS     Duration Track
--------------------------------------------------------------------------------
DR11      -2.43 dB   -15.01 dB      3:05 01-Christine's Tune
DR11      -3.32 dB   -15.94 dB      4:11 02-Sin City
DR11      -2.85 dB   -15.62 dB      3:58 03-Do Right Woman
DR12      -1.00 dB   -16.13 dB      3:59 04-Dark End Of The Street
DR12      -1.22 dB   -14.40 dB      2:40 05-My Uncle
DR11      -1.00 dB   -14.96 dB      3:05 06-Wheels
DR11      -2.46 dB   -15.05 dB      2:32 07-Juanita
DR12      -2.89 dB   -17.04 dB      3:41 08-Hot Burrito No. 1
DR12      -1.18 dB   -15.17 dB      3:20 09-Hot Burrito No. 2
DR11      -2.86 dB   -16.91 dB      2:11 10-Do You Know How It Feels
DR12      -1.51 dB   -16.82 dB      4:56 11-Hippie Boy

Number of tracks:  11
Official DR value: DR11

Samplerate:        96000 Hz
Channels:          2
Bits per sample:   24
Bitrate:           2877 kbps
Codec:             FLAC
DETALE TORRENTA:[ Pokaż/Ukryj ]

Podobne pliki
The Doobie Brothers - The Captain And Me (1973) (PBTHAL LP 24-96) [FLAC]
The Doobie Brothers - The Captain And Me (1973) (PBTHAL LP 24-96) [FLAC]
Dire Straits - Brothers In Arms (1985) (PBTHAL LP 24-96) [FLAC]
Dire Straits - Brothers In Arms (1985) (PBTHAL LP 24-96) [FLAC]
The Who - Tommy (A Rock Opera) (1969) (PBTHAL LP 24-96) [FLAC]
The Who - Tommy (A Rock Opera) (1969) (PBTHAL LP 24-96) [FLAC]
The Rolling Stones - Let It Bleed (1969) (PBTHAL LP 24-96) [FLAC]
The Rolling Stones - Let It Bleed (1969) (PBTHAL LP 24-96) [FLAC]
The Allman Brothers Band - At Fillmore East (1971) (PBTHAL LP 24-96) [FLAC]
The Allman Brothers Band - At Fillmore East (1971) (PBTHAL LP 24-96) [FLAC]
Frank Zappa - Uncle Meat (1969) (PBTHAL LP 24-96) [FLAC]
Frank Zappa - Uncle Meat (1969) (PBTHAL LP 24-96) [FLAC]
Creedence Clearwater Revival - Willy And The Poorboys (1969) (PBTHAL LP 24-96) [FLAC]
Creedence Clearwater Revival - Willy And The Poorboys (1969) (PBTHAL LP 24-96) [FLAC]
Fleetwood Mac - The Pious Bird Of Good Omen (1969) (PBTHAL LP 24-96) [FLAC]
Fleetwood Mac - The Pious Bird Of Good Omen (1969) (PBTHAL LP 24-96) [FLAC]

Komentarze

Brak komentarzy

Zaloguj się aby skomentować