MENU

KATEGORIE

TOPLISTA

Torrent: Królestwo zwierząt - Animal Kingdom [S02] [1080p] [BluRay] [DD5.1] [x264] [ROVERS] [ENG] [Napisy w opisie]
Królestwo zwierząt - Animal Kingdom  [S02] [1080p] [BluRay] [DD5.1] [x264] [ROVERS] [ENG] [Napisy w opisie]
Dodał: umezrorv
Data: 18-07-2021
Rozmiar: 51.67 GB
Seed: 1
Peer: 0
Pobierz torrent

  • *
Głosów: 0
Kategoria: TV / SERIALE -> ZAGRANICZNE
Zaakceptował: nie wymagał akceptacji
Liczba pobrań: 5
Liczba komentarzy: 0
Ostatnia aktualizacja: 0000-00-00 00:00:00
OPIS:


..::(Info)::..

Produkcja: USA
Gatunek: Dramat, Kryminał
Twórca: Liz Watts
Platforma: TNT
Premiera: 14 czerwca 2016

NAPISY PL

https://www.opensubtitles.org/pl/ssearch/sublanguageid-pol/idmovie-457596

https://napisy24.pl/serial/Animal+Kingdom
..::(Opis)::..

Kiedy matka Josha (Finn Cole) umiera w wyniku przedawkowania, nastolatek przeprowadza się do swoich krewnych mieszkających w Kalifornii. Wkrótce odkrywa, że jego rodzina utrzymuje się z działalności przestępczej. Po sześciu latach spędzonych w więzieniu do domu wraca kuzyn Josha, Pope (Shawn Hatosy), który został skazany za napad na bank i nieumyślne spowodowanie śmierci. Josh próbuje się zaaklimatyzować w nowym mieście i dostosować do panujących w rodzinie zasad.

..::(Obsada)::..

Ellen Barkin .... Janine "Smurf" Cody
Scott Speedman .... Barry "Baz" Blackwell
Shawn Hatosy .... Andrew "Pope" Cody
Ben Robson .... Craig Cody
Jake Weary .... Deran Cody
Finn Cole .... Joshua "J" Cody

..::(Dane Techniczne)::..

Video
ID : 1
Format : AVC
Format/INFO : Advanced Video Codec
Format profile : High@L4.1
Format settings : CABAC / 4 Ref Frames
Format settings, CABAC : Yes
Format settings, ReFrames : 4 frames
Codec ID : V_MPEG4/ISO/AVC
Duration : 49 min 21 s
Bit rate : 10.0 Mb/s
Width : 1 920 pixels
Height : 1 080 pixels
Display aspect ratio : 16:9
Frame rate mode : Constant
Frame rate : 23.976 FPS
Color space : YUV
Chroma subsampling : 4:2:0
Bit depth : 8 bits
Scan type : Progressive
Bits/(Pixel*Frame) : 0.201
Stream size : 3.45 GiB (87%)
Writing library : x264 core 155 r2901 7d0ff22
Encoding settings : cabac=1 / ref=4 / deblock=1:0:0 / analyse=0x3:0x133 / me=umh / subme=7 / psy=1 / psy_rd=1.00:0.00 / mixed_ref=1 / me_range=16 / chroma_me=1 / trellis=1 / 8x8dct=1 / cqm=0 / deadzone=21,11 / fast_pskip=0 / chroma_qp_offset=-2 / threads=30 / lookahead_threads=5 / sliced_threads=0 / nr=0 / decimate=1 / interlaced=0 / bluray_compat=0 / constrained_intra=0 / bframes=3 / b_pyramid=2 / b_adapt=1 / b_bias=0 / direct=1 / weightb=1 / open_gop=0 / weightp=2 / keyint=250 / keyint_min=23 / scenecut=40 / intra_refresh=0 / rc_lookahead=40 / rc=2pass / mbtree=1 / bitrate=10003 / ratetol=1.0 / qcomp=0.60 / qpmin=0 / qpmax=69 / qpstep=4 / cplxblur=20.0 / qblur=0.5 / ip_ratio=1.40 / aq=1:1.00
Language : English
Default : Yes
Forced : No

Audio
ID : 2
Format : DTS
Format/INFO : Digital Theater Systems
Codec ID : A_DTS
Duration : 49 min 21 s
Bit rate mode : Constant
Bit rate : 1 509 kb/s
Channel(s) : 6 channels
Channel positions : Front: L C R, Side: L R, LFE
Sampling rate : 48.0 kHz
Frame rate : 93.750 FPS (512 SPF)
Bit depth : 24 bits
Compression mode : Lossy
Stream size : 533 MiB (13%)
Language : English
Default : Yes
Forced : No

Menu
00:00:00.000 : en:00:00:00.000
00:00:50.801 : en:00:00:50.801
00:01:50.902 : en:00:01:50.902
00:15:10.618 : en:00:15:10.618
00:21:15.441 : en:00:21:15.441
00:27:02.454 : en:00:27:02.454
00:38:15.877 : en:00:38:15.877
00:48:50.761 : en:00:48:50.761
DETALE TORRENTA:[ Pokaż/Ukryj ]

Podobne pliki
Królestwo zwierząt - Animal Kingdom [S01] [1080p] [BluRay] [DD5.1] [x264] [SHORTBREHD] [ENG] [Napisy w opisie]
Królestwo zwierząt - Animal Kingdom  [S01] [1080p] [BluRay] [DD5.1] [x264] [SHORTBREHD] [ENG] [Napisy w opisie]
Królestwo zwierząt - Animal Kingdom [S03] [1080p] [AMZN] [WEB] [DD5.1] [x264] [NTb] [ENG] [Napisy w opisie]
Królestwo zwierząt - Animal Kingdom  [S03] [1080p] [AMZN] [WEB] [DD5.1] [x264] [NTb] [ENG] [Napisy w opisie]
Królestwo zwierząt - Animal Kingdom [S04] [1080p] [AMZN] [WEB] [DD5.1] [x264] [NTb] [ENG] [Napisy w opisie]
Królestwo zwierząt - Animal Kingdom  [S04] [1080p] [AMZN] [WEB] [DD5.1] [x264] [NTb] [ENG] [Napisy w opisie]
Królestwo zwierząt - Animal Kingdom *2021* [S05E01] [1080p] [WEB] [DD5.1] [x264] [GOSSIP] [Napisy PL]
Królestwo zwierząt - Animal Kingdom *2021* [S05E01] [1080p] [WEB] [DD5.1] [x264] [GOSSIP] [Napisy PL]
Królestwo zwierząt - Animal Kingdom *2021* [S05E02] [1080p] [WEB] [DD5.1] [x264] [GOSSIP] [Napisy PL]
Królestwo zwierząt - Animal Kingdom *2021* [S05E02] [1080p] [WEB] [DD5.1] [x264] [GOSSIP] [Napisy PL]
Królestwo - The Kingdom *2007* [1080p] [Bluray] [Lektor i Napisy PL]
Królestwo - The Kingdom *2007* [1080p] [Bluray] [Lektor i Napisy PL]
The Climbers - Pan deng zhe (2019) [1080p] [BluRay] [x264-ROVERS] [Napisy PL]
The Climbers - Pan deng zhe (2019) [1080p] [BluRay] [x264-ROVERS] [Napisy PL]
Królestwo Niebieskie - Kingdom of Heaven (2005) [DC] [1080P] [BLURAY] [H264] [AC3] [LEKTOR.PL] [NAPISY.PL.EN] [ENTER1973]
Królestwo Niebieskie - Kingdom of Heaven (2005) [DC] [1080P] [BLURAY] [H264] [AC3] [LEKTOR.PL] [NAPISY.PL.EN] [ENTER1973]

Komentarze

Brak komentarzy

Zaloguj się aby skomentować