MENU

KATEGORIE

TOPLISTA

Torrent: Królestwo zwierząt - Animal Kingdom [S01] [1080p] [BluRay] [DD5.1] [x264] [SHORTBREHD] [ENG] [Napisy w opisie]
Królestwo zwierząt - Animal Kingdom  [S01] [1080p] [BluRay] [DD5.1] [x264] [SHORTBREHD] [ENG] [Napisy w opisie]
Dodał: umezrorv
Data: 18-07-2021
Rozmiar: 41.77 GB
Seed: 1
Peer: 0
Pobierz torrent

  • *
Głosów: 0
Kategoria: TV / SERIALE -> ZAGRANICZNE
Zaakceptował: nie wymagał akceptacji
Liczba pobrań: 7
Liczba komentarzy: 0
Ostatnia aktualizacja: 0000-00-00 00:00:00
OPIS:


..::(Info)::..

Produkcja: USA
Gatunek: Dramat, Kryminał
Twórca: Liz Watts
Platforma: TNT
Premiera: 14 czerwca 2016

NAPISY PL

https://www.opensubtitles.org/pl/ssearch/sublanguageid-pol/idmovie-457596

https://napisy24.pl/serial/Animal+Kingdom
..::(Opis)::..

Kiedy matka Josha (Finn Cole) umiera w wyniku przedawkowania, nastolatek przeprowadza się do swoich krewnych mieszkających w Kalifornii. Wkrótce odkrywa, że jego rodzina utrzymuje się z działalności przestępczej. Po sześciu latach spędzonych w więzieniu do domu wraca kuzyn Josha, Pope (Shawn Hatosy), który został skazany za napad na bank i nieumyślne spowodowanie śmierci. Josh próbuje się zaaklimatyzować w nowym mieście i dostosować do panujących w rodzinie zasad.

..::(Obsada)::..

Ellen Barkin .... Janine "Smurf" Cody
Scott Speedman .... Barry "Baz" Blackwell
Shawn Hatosy .... Andrew "Pope" Cody
Ben Robson .... Craig Cody
Jake Weary .... Deran Cody
Finn Cole .... Joshua "J" Cody

..::(Dane Techniczne)::..

Video
ID : 1
Format : AVC
Format/INFO : Advanced Video Codec
Format profile : High@L4.1
Format settings, CABAC : Yes
Format settings, ReFrames : 4 frames
Codec ID : V_MPEG4/ISO/AVC
Duration : 1h 41mn
Bit rate : 9 252 Kbps
Width : 1 920 pixels
Height : 1 080 pixels
Display aspect ratio : 16:9
Frame rate mode : Constant
Frame rate : 23.976 (24000/1001) fps
Color space : YUV
Chroma subsampling : 4:2:0
Bit depth : 8 bits
Scan type : Progressive
Bits/(Pixel*Frame) : 0.186
Stream size : 6.43 GiB (84%)
Writing library : x264 core 148 r2744 b97ae06
Encoding settings : cabac=1 / ref=4 / deblock=1:-3:-3 / analyse=0x3:0x113 / me=umh / subme=8 / psy=1 / psy_rd=1.00:0.00 / mixed_ref=1 / me_range=16 / chroma_me=1 / trellis=1 / 8x8dct=1 / cqm=0 / deadzone=21,11 / fast_pskip=1 / chroma_qp_offset=-2 / threads=24 / lookahead_threads=4 / sliced_threads=0 / nr=0 / decimate=1 / interlaced=0 / bluray_compat=0 / constrained_intra=0 / bframes=3 / b_pyramid=2 / b_adapt=2 / b_bias=0 / direct=3 / weightb=1 / open_gop=0 / weightp=2 / keyint=240 / keyint_min=24 / scenecut=40 / intra_refresh=0 / rc_lookahead=50 / rc=2pass / mbtree=1 / bitrate=9252 / ratetol=1.0 / qcomp=0.60 / qpmin=0 / qpmax=69 / qpstep=4 / cplxblur=20.0 / qblur=0.5 / ip_ratio=1.40 / aq=3:0.80
Default : Yes
Forced : No
Statistics Tags Issue : no_variable_data 1970-01-01 00:00:00 / no_variable_data 2010-02-22 21:41:29
FromStats_BitRate : 9251717
FromStats_Duration : 01:41:47.143000000
FromStats_FrameCount : 146425
FromStats_StreamSize : 7062695109

Audio
ID : 2
Format : DTS
Format/INFO : Digital Theater Systems
Mode : 16
Format settings, Endianness : Big
Codec ID : A_DTS
Duration : 1h 41mn
Bit rate mode : Constant
Bit rate : 1 509 Kbps
Channel(s) : 6 channels
Channel positions : Front: L C R, Side: L R, LFE
Sampling rate : 48.0 KHz
Frame rate : 93.750 fps (512 spf)
Bit depth : 24 bits
Compression mode : Lossy
Stream size : 1.07 GiB (14%)
Language : English
Default : Yes
Forced : No
Statistics Tags Issue : no_variable_data 1970-01-01 00:00:00 / no_variable_data 2010-02-22 21:41:29
FromStats_BitRate : 1508999
FromStats_Duration : 01:41:47.147000000
FromStats_FrameCount : 572545
FromStats_StreamSize : 1151960540

Text #1
ID : 3
Format : UTF-8
Codec ID : S_TEXT/UTF8
Codec ID/INFO : UTF-8 Plain Text
Language : English
Default : No
Forced : No
Statistics Tags Issue : no_variable_data 1970-01-01 00:00:00 / no_variable_data 2010-02-22 21:41:29
FromStats_BitRate : 46
FromStats_Duration : 01:41:32.378000000
FromStats_FrameCount : 1143
FromStats_StreamSize : 35283

Text #2
ID : 4
Format : UTF-8
Codec ID : S_TEXT/UTF8
Codec ID/INFO : UTF-8 Plain Text
Title : SDH
Language : English
Default : No
Forced : No
Statistics Tags Issue : no_variable_data 1970-01-01 00:00:00 / no_variable_data 2010-02-22 21:41:29
FromStats_BitRate : 49
FromStats_Duration : 01:41:35.131000000
FromStats_FrameCount : 1248
FromStats_StreamSize : 37685

Menu
00:00:00.000 : en:00:00:00.000
00:19:21.410 : en:00:19:21.410
00:28:15.485 : en:00:28:15.485
00:41:05.129 : en:00:41:05.129
00:54:25.471 : en:00:54:25.471
00:58:00.811 : en:00:58:00.811
01:07:50.441 : en:01:07:50.441
01:15:50.921 : en:01:15:50.921
01:23:45.229 : en:01:23:45.229
01:31:52.465 : en:01:31:52.465
01:40:54.882 : en:01:40:54.882
DETALE TORRENTA:[ Pokaż/Ukryj ]

Podobne pliki
Królestwo zwierząt - Animal Kingdom [S02] [1080p] [BluRay] [DD5.1] [x264] [ROVERS] [ENG] [Napisy w opisie]
Królestwo zwierząt - Animal Kingdom  [S02] [1080p] [BluRay] [DD5.1] [x264] [ROVERS] [ENG] [Napisy w opisie]
Królestwo zwierząt - Animal Kingdom [S03] [1080p] [AMZN] [WEB] [DD5.1] [x264] [NTb] [ENG] [Napisy w opisie]
Królestwo zwierząt - Animal Kingdom  [S03] [1080p] [AMZN] [WEB] [DD5.1] [x264] [NTb] [ENG] [Napisy w opisie]
Królestwo zwierząt - Animal Kingdom [S04] [1080p] [AMZN] [WEB] [DD5.1] [x264] [NTb] [ENG] [Napisy w opisie]
Królestwo zwierząt - Animal Kingdom  [S04] [1080p] [AMZN] [WEB] [DD5.1] [x264] [NTb] [ENG] [Napisy w opisie]
Królestwo zwierząt - Animal Kingdom *2021* [S05E01] [1080p] [WEB] [DD5.1] [x264] [GOSSIP] [Napisy PL]
Królestwo zwierząt - Animal Kingdom *2021* [S05E01] [1080p] [WEB] [DD5.1] [x264] [GOSSIP] [Napisy PL]
Królestwo zwierząt - Animal Kingdom *2021* [S05E02] [1080p] [WEB] [DD5.1] [x264] [GOSSIP] [Napisy PL]
Królestwo zwierząt - Animal Kingdom *2021* [S05E02] [1080p] [WEB] [DD5.1] [x264] [GOSSIP] [Napisy PL]
Królestwo - The Kingdom *2007* [1080p] [Bluray] [Lektor i Napisy PL]
Królestwo - The Kingdom *2007* [1080p] [Bluray] [Lektor i Napisy PL]
Królestwo Niebieskie - Kingdom of Heaven (2005) [DC] [1080P] [BLURAY] [H264] [AC3] [LEKTOR.PL] [NAPISY.PL.EN] [ENTER1973]
Królestwo Niebieskie - Kingdom of Heaven (2005) [DC] [1080P] [BLURAY] [H264] [AC3] [LEKTOR.PL] [NAPISY.PL.EN] [ENTER1973]
Królestwo Niebieskie - Kingdom of Heaven *2005* [1080p.BluRay.H265.AC3.5.1-NitroTeam] [Napisy ENG-PL] [ENG-Lektor PL]
Królestwo Niebieskie - Kingdom of Heaven *2005* [1080p.BluRay.H265.AC3.5.1-NitroTeam] [Napisy ENG-PL] [ENG-Lektor PL]

Komentarze

Brak komentarzy

Zaloguj się aby skomentować