MENU

KATEGORIE

TOPLISTA

Torrent: Królestwo zwierząt - Animal Kingdom [S04] [1080p] [AMZN] [WEB] [DD5.1] [x264] [NTb] [ENG] [Napisy w opisie]
Królestwo zwierząt - Animal Kingdom  [S04] [1080p] [AMZN] [WEB] [DD5.1] [x264] [NTb] [ENG] [Napisy w opisie]
Dodał: umezrorv
Data: 18-07-2021
Rozmiar: 41.69 GB
Seed: 1
Peer: 0
Pobierz torrent

  • *
Głosów: 0
Kategoria: TV / SERIALE -> ZAGRANICZNE
Zaakceptował: nie wymagał akceptacji
Liczba pobrań: 3
Liczba komentarzy: 0
Ostatnia aktualizacja: 0000-00-00 00:00:00
OPIS:


..::(Info)::..

Produkcja: USA
Gatunek: Dramat, Kryminał
Twórca: Liz Watts
Platforma: TNT
Premiera: 14 czerwca 2016

NAPISY PL

https://www.opensubtitles.org/pl/ssearch/sublanguageid-pol/idmovie-457596

https://napisy24.pl/serial/Animal+Kingdom
..::(Opis)::..

Kiedy matka Josha (Finn Cole) umiera w wyniku przedawkowania, nastolatek przeprowadza się do swoich krewnych mieszkających w Kalifornii. Wkrótce odkrywa, że jego rodzina utrzymuje się z działalności przestępczej. Po sześciu latach spędzonych w więzieniu do domu wraca kuzyn Josha, Pope (Shawn Hatosy), który został skazany za napad na bank i nieumyślne spowodowanie śmierci. Josh próbuje się zaaklimatyzować w nowym mieście i dostosować do panujących w rodzinie zasad.

..::(Obsada)::..

Ellen Barkin .... Janine "Smurf" Cody
Scott Speedman .... Barry "Baz" Blackwell
Shawn Hatosy .... Andrew "Pope" Cody
Ben Robson .... Craig Cody
Jake Weary .... Deran Cody
Finn Cole .... Joshua "J" Cody

..::(Dane Techniczne)::..

Video
ID : 1
Format : AVC
Format/INFO : Advanced Video Codec
Format profile : High@L4
Format settings : CABAC / 4 Ref Frames
Format settings, CABAC : Yes
Format settings, ReFrames : 4 frames
Codec ID : V_MPEG4/ISO/AVC
Duration : 45 min 53 s
Bit rate : 12.9 Mb/s
Width : 1 920 pixels
Height : 1 080 pixels
Display aspect ratio : 16:9
Frame rate mode : Constant
Frame rate : 23.976 (24000/1001) FPS
Color space : YUV
Chroma subsampling : 4:2:0
Bit depth : 8 bits
Scan type : Progressive
Bits/(Pixel*Frame) : 0.260
Stream size : 4.14 GiB (95%)
Default : Yes
Forced : No
Color range : Limited
Color primaries : BT.709
Transfer characteristics : BT.709
Matrix coefficients : BT.709

Audio
ID : 2
Format : E-AC-3
Format/INFO : Enhanced Audio Coding 3
Codec ID : A_EAC3
Duration : 45 min 53 s
Bit rate mode : Constant
Bit rate : 640 kb/s
Channel(s) : 6 channels
Channel positions : Front: L C R, Side: L R, LFE
Sampling rate : 48.0 kHz
Frame rate : 187.500 FPS (256 SPF)
Compression mode : Lossy
Stream size : 210 MiB (5%)
Language : English
Service kind : Complete Main
Default : Yes
Forced : No

Text
ID : 3
Format : UTF-8
Codec ID : S_TEXT/UTF8
Codec ID/INFO : UTF-8 Plain Text
Duration : 45 min 47 s
Bit rate : 66 b/s
Count of elements : 874
Stream size : 22.5 KiB (0%)
Title : SDH
Language : English
Default : No
Forced : No
DETALE TORRENTA:[ Pokaż/Ukryj ]

Podobne pliki
Królestwo zwierząt - Animal Kingdom [S03] [1080p] [AMZN] [WEB] [DD5.1] [x264] [NTb] [ENG] [Napisy w opisie]
Królestwo zwierząt - Animal Kingdom  [S03] [1080p] [AMZN] [WEB] [DD5.1] [x264] [NTb] [ENG] [Napisy w opisie]
Królestwo zwierząt - Animal Kingdom [S02] [1080p] [BluRay] [DD5.1] [x264] [ROVERS] [ENG] [Napisy w opisie]
Królestwo zwierząt - Animal Kingdom  [S02] [1080p] [BluRay] [DD5.1] [x264] [ROVERS] [ENG] [Napisy w opisie]
Królestwo zwierząt - Animal Kingdom [S01] [1080p] [BluRay] [DD5.1] [x264] [SHORTBREHD] [ENG] [Napisy w opisie]
Królestwo zwierząt - Animal Kingdom  [S01] [1080p] [BluRay] [DD5.1] [x264] [SHORTBREHD] [ENG] [Napisy w opisie]
Królestwo zwierząt - Animal Kingdom *2021* [S05E01] [1080p] [WEB] [DD5.1] [x264] [GOSSIP] [Napisy PL]
Królestwo zwierząt - Animal Kingdom *2021* [S05E01] [1080p] [WEB] [DD5.1] [x264] [GOSSIP] [Napisy PL]
Królestwo zwierząt - Animal Kingdom *2021* [S05E02] [1080p] [WEB] [DD5.1] [x264] [GOSSIP] [Napisy PL]
Królestwo zwierząt - Animal Kingdom *2021* [S05E02] [1080p] [WEB] [DD5.1] [x264] [GOSSIP] [Napisy PL]
Clarice *2021* [S01] [1080p] [AMZN] [WEB] [DD5.1] [x264] [NTb] [ENG] [Napisy w opisie]
Clarice *2021* [S01] [1080p] [AMZN] [WEB] [DD5.1] [x264] [NTb] [ENG] [Napisy w opisie]
Rick and Morty S05E05 [1080p.AMZN.WEBRip.DDP5.1.x264-RICKC137] [NAPISY PL] (W ODDZIELNYM PLIKU DO POBRANIA W OPISIE)
Rick and Morty S05E05 [1080p.AMZN.WEBRip.DDP5.1.x264-RICKC137] [NAPISY PL] (W ODDZIELNYM PLIKU DO POBRANIA W OPISIE)
Królestwo - The Kingdom *2007* [1080p] [Bluray] [Lektor i Napisy PL]
Królestwo - The Kingdom *2007* [1080p] [Bluray] [Lektor i Napisy PL]

Komentarze

Brak komentarzy

Zaloguj się aby skomentować